<?xml version="1.0" standalone="no"?>
<!DOCTYPE svg PUBLIC "-//W3C//DTD SVG 1.1//EN" "http://www.w3.org/Graphics/SVG/1.1/DTD/svg11.dtd" >
<svg xmlns="http://www.w3.org/2000/svg">
<metadata>
<json>
<![CDATA[
{
	"fontFamily": "icomoon-fontawesome-brand-16x16",
	"majorVersion": 1,
	"minorVersion": 0,
	"version": "Version 1.0",
	"fontId": "icomoon-fontawesome-brand-16x16",
	"psName": "icomoon-fontawesome-brand-16x16",
	"subFamily": "Regular",
	"fullName": "icomoon-fontawesome-brand-16x16",
	"description": "Font generated by IcoMoon."
}
]]>
</json>
</metadata>
<defs>
<font id="icomoon-fontawesome-brand-16x16" horiz-adv-x="1024">
<font-face units-per-em="1024" ascent="960" descent="-64" />
<missing-glyph horiz-adv-x="1024" />
<glyph unicode="&#x20;" horiz-adv-x="512" d="" />
<glyph unicode="&#xe900;" glyph-name="youtube" data-tags="youtube" horiz-adv-x="1152" d="M1099.31 711.834c-12.562 47.3-49.574 84.552-96.568 97.194-85.18 22.972-426.742 22.972-426.742 22.972s-341.56 0-426.742-22.972c-46.994-12.644-84.006-49.894-96.568-97.194-22.824-85.734-22.824-264.61-22.824-264.61s0-178.876 22.824-264.61c12.562-47.3 49.574-83 96.568-95.642 85.182-22.972 426.742-22.972 426.742-22.972s341.56 0 426.742 22.972c46.994 12.642 84.006 48.342 96.568 95.642 22.824 85.734 22.824 264.61 22.824 264.61s0 178.876-22.824 264.61zM464.29 284.818v324.812l285.478-162.41-285.478-162.402z" />
<glyph unicode="&#xe901;" glyph-name="youtube-square" data-tags="youtube-square" horiz-adv-x="896" d="M373.6 555.8l190.4-108.2-190.4-108.2v216.4zM896 800v-704c0-53-43-96-96-96h-704c-53 0-96 43-96 96v704c0 53 43 96 96 96h704c53 0 96-43 96-96zM812 447.4s0 119.2-15.2 176.4c-8.4 31.6-33 56.4-64.4 64.8-56.6 15.4-284.4 15.4-284.4 15.4s-227.8 0-284.4-15.4c-31.4-8.4-56-33.2-64.4-64.8-15.2-57-15.2-176.4-15.2-176.4s0-119.2 15.2-176.4c8.4-31.6 33-55.4 64.4-63.8 56.6-15.2 284.4-15.2 284.4-15.2s227.8 0 284.4 15.4c31.4 8.4 56 32.2 64.4 63.8 15.2 57 15.2 176.2 15.2 176.2z" />
<glyph unicode="&#xe902;" glyph-name="yoast" data-tags="yoast" horiz-adv-x="896" d="M182.6 808h372l-14-37.8h-358c-79.4 0-143.8-63.2-143.8-140.6v-410.8c0-70.8 49.8-140.6 168-140.6v-38.2h-24.2c-100.2 0-182.6 80.4-182.6 179v410.6c0 98.6 81.4 178.4 182.6 178.4zM640.8 920h133c-287.6-756.2-291.4-797.8-369.4-878.6-41.6-43.2-98.6-63.4-156.6-65.4v102.2c98.4 15.4 129.2 99.8 129.2 150.6 0 40.2 1.2 25.2-164.2 446.4h122.8l100.8-313.2 204.4 558zM896 637v-597h-428c13.2 19.2 21.4 32.6 24.2 38.8h365v558.2c0 65-34.2 103.8-96.4 125.8l13.4 35.2c83.4-27.2 121.8-86.2 121.8-161z" />
<glyph unicode="&#xe903;" glyph-name="yelp" data-tags="yelp" horiz-adv-x="768" d="M273.8 304c-2-0.6-218.4-71.4-231.6-71.4-30.4 1.8-37 32.4-39.8 62.4-3 28.4-2.8 59.6 0.6 93.6 3.8 37.6 11 90.2 48.4 88 9.6 0 134.2-51.8 225.4-88.8 34.2-13.6 37.2-71.6-3-83.8zM389.6 531.8c3.6-76.4-51-97-94.4-28.6l-212.6 336c-3 13.2 0.6 24.8 10.6 34.8 31.2 33 198.8 79.6 243 68.2 15-3.8 24.2-12.2 27.6-25.2 2.6-16.6 23-334.8 25.8-385.2zM386.8 202.2c0-9.2 0.4-232.8-3.4-243-4.6-12-14-19.4-28.6-22.4-20.2-3.4-54.2 3.8-102 21.4-44 16.2-113.4 43-98.6 85 5.6 13.8 102.8 125.6 154.6 187.2 24 30.4 79.6 11 78-28.2zM747.2 437.8c-11.2-7.4-221.6-56.4-236.2-61.2l0.6 1.2c-36.2-9.4-70.8 37-46.6 69.2 7.4 7.4 131.8 184.8 145.6 194 10.4 7.2 22.6 7.6 36.6 1.2 36.8-17.6 110.2-126.2 114.8-169.2-0.2-5.8 2.4-23.4-14.8-35.2zM767.4 176.4c-5.4-41.2-89-146.8-127.6-162-13.8-5.2-25.8-4-35.4 4-10 7-123.6 194.2-129.8 204.6-21.8 32.4 13.6 79.6 51.2 66.4 0 0 221-71.4 229.4-78.8 10.4-8.2 14.4-19.6 12.2-34.2z" />
<glyph unicode="&#xe904;" glyph-name="yandex" data-tags="yandex" horiz-adv-x="512" d="M306.2 328.4l-174.8-392.4h-127.4l192 419.6c-90.2 45.8-150.4 128.8-150.4 282.2-0.2 214.8 136 322.2 297.8 322.2h164.6v-1024h-110.2v392.4h-91.6zM397.8 867h-58.8c-88.8 0-174.8-58.8-174.8-229.2 0-164.6 78.8-217.6 174.8-217.6h58.8v446.8z" />
<glyph unicode="&#xe905;" glyph-name="yandex-international" data-tags="yandex-international" horiz-adv-x="640" d="M259-64v332.2l-222 595.8h111.6l163.6-459.4 188.2 555.4h102.6l-241.4-695.6v-328.4h-102.6z" />
<glyph unicode="&#xe906;" glyph-name="yahoo" data-tags="yahoo" horiz-adv-x="896" d="M504 376l8-440c-25.4 4.4-47 7.8-64.6 7.8-16.8 0-38.4-3.4-64.6-7.8l8 440c-110 189.6-220.8 393.6-348 584 23.8-6.2 46-7.8 66.4-7.8 18 0 40.8 1.6 68.2 7.8 81.8-144.4 164.2-277.4 270-451 74.6 123.2 182.2 288.2 269.8 451 22.2-5.8 44-7.8 65.8-7.8 23 0 46.4 2 70 7.8-68.8-95.8-263.2-433.8-349-584z" />
<glyph unicode="&#xe907;" glyph-name="y-combinator" data-tags="y-combinator" horiz-adv-x="896" d="M896 896v-896h-896v896h896zM472 385l155 291h-65.4l-91.6-182c-9.4-18.6-18-36.6-25.6-53.6l-24.4 53.6-90.4 182h-70l153.4-287.6v-189h59v185.6z" />
<glyph unicode="&#xe908;" glyph-name="xing" data-tags="xing" horiz-adv-x="768" d="M325.4 540c-3.6-6.6-50.4-88.8-140.2-247-9.8-16.6-21.6-25-35.4-25h-130.2c-15.4 0-24.2 15-17 28.8l138 242.6c0.4 0 0.4 0.2 0 0.6l-87.8 151.2c-8.6 15.6 0.6 28.2 17 28.2h130.2c14.6 0 26.6-8.2 36-24.4l89.4-155zM765.2 867.8l-288-506v-0.6l183.2-333.2c7.8-14.2 0.4-28.2-17-28.2h-130.4c-15.2 0-27.2 8-36 24.4l-184.8 337c6.6 11.6 103 181.6 289.6 510.4 9.2 16.2 20.8 24.4 35 24.4h131.4c16 0 24.6-13.4 17-28.2z" />
<glyph unicode="&#xe909;" glyph-name="xing-square" data-tags="xing-square" horiz-adv-x="896" d="M800 896h-704c-53 0-96-43-96-96v-704c0-53 43-96 96-96h704c53 0 96 43 96 96v704c0 53-43 96-96 96zM280.8 319.6h-93.2c-11 0-17.4 10.6-12 20.6l98.6 173.4c0.2 0 0.2 0.2 0 0.4l-62.8 108c-6 11.2 0.4 20.2 12 20.2h93.2c10.4 0 19-5.8 25.8-17.4l63.8-110.6c-2.6-4.6-36-63.4-100.2-176.4-7-12.4-15.4-18.2-25.2-18.2zM720.2 747.8l-205.6-361.4v-0.4l131-238c5.6-10.2 0.2-20.2-12-20.2h-93.2c-11 0-19.4 5.8-25.8 17.4l-132 240.6c4.6 8.2 73.6 129.8 206.8 364.6 6.6 11.6 14.8 17.4 25 17.4h93.8c11.4 0.2 17.6-9.4 12-20z" />
<glyph unicode="&#xe90a;" glyph-name="xbox" data-tags="xbox" d="M739.8 323.6c88.6-108.6 129.4-197.6 108.8-237.4-15.8-30.2-113.4-89.2-185.2-111.8-59.2-18.6-136.8-26.6-200.8-20.4-76.4 7.4-153.8 34.8-220.2 78-55.8 36.4-68.4 51.4-68.4 81.2 0 59.8 65.8 164.6 178.4 284.2 64 67.8 153 147.4 162.8 145.2 18.8-4.2 168.6-150.2 224.6-219zM377.2 672.4c-59.4 53.8-116.2 107.8-172.8 126.8-30.4 10.2-32.6 9.6-57.4-16.2-58.4-60.8-107-159.4-120.6-244.8-10.8-68.4-12.2-87.6-8.4-121 11.2-101 34.6-170.8 81-241.8 19-29.2 24.2-34.6 18.6-19.8-8.4 22-0.6 75 19 128 28.6 78 107.8 225.8 240.6 388.8zM1000.4 545.4c-33.8 160-135 260.6-149.2 260.6-14.6 0-48.4-13-72-27.8-46.6-29-82-62.8-128.6-105.6 84.8-106.6 204.4-278.8 245.8-404.6 13.6-41.4 19.4-82.2 14.8-104.6-3.4-17-3.4-17 2.8-9.2 12.2 15.4 39.8 62.6 50.8 87 14.8 32.4 30 80.4 37.2 117.4 8.6 45 7.8 141.6-1.6 186.8zM282.6 874c95.4 5 219.4-69 228.6-70.8 1.4-0.2 20.8 8.4 43.2 19.4 127.8 62.2 188 51.6 214.8 50.4-127.8 78.6-305.4 100-467.8 23.4-46.8-22.2-48-23.8-18.8-22.4z" />
<glyph unicode="&#xe90b;" glyph-name="wpforms" data-tags="wpforms" horiz-adv-x="896" d="M896 809.6v-723.4c0-48.6-38-86.4-86.4-86.4h-723.2c-47.8 0.2-86.4 37.4-86.4 86.6v723.2c0 48.2 37.6 86.4 86.4 86.4h723.4c48 0 86.2-37.6 86.2-86.4zM821.4 86.4v723.2c0 6-5.2 11.6-11.6 11.6h-18.6l-220.6-149.2-122.6 99.8-122.4-99.8-220.6 149.4h-18.6c-6.4 0-11.6-5.6-11.6-11.6v-723.4c0-6 5.2-11.6 11.6-11.6h723.4c6.4-0.2 11.6 5.4 11.6 11.6zM300.4 588v-74h-147v74h147zM300.4 439.2v-74.6h-147v74.6h147zM322.6 733.8l108 87.4h-237l129-87.4zM742.6 588v-74h-392v74h392zM742.6 439.2v-74.6h-392v74.6h392zM573.4 733.8l129 87.4h-236.8l107.8-87.4zM742.6 290v-74.6h-198.8v74.6h198.8z" />
<glyph unicode="&#xe90c;" glyph-name="wpexplorer" data-tags="wpexplorer" d="M1024 448c0-282.4-229.4-512-512-512-282.4 0-512 229.4-512 512s229.4 512 512 512 512-229.4 512-512zM960 448c0 246.4-200.6 448-448 448-247 0-448-201-448-448s201-448 448-448 448 201 448 448zM321.8 710.8l173.8-74.2-74.2-173.8-173.8 74.2 74.2 173.8zM541.8 372.6l93.2-188h-29.2l-100 200-97.8-200h-28l102.2 213.8-44.6 18.8 12 28 137.2-58.2-12-28.6-33 14.2zM518.2 605.2l137.2-58.8-58.8-136.6-136.6 58.2 58.2 137.2zM678.8 519.4l109.2-46.2-46.8-108.6-108.6 46.2 46.2 108.6z" />
<glyph unicode="&#xe90d;" glyph-name="wpbeginner" data-tags="wpbeginner" d="M925.598 315.252c112.422-128.616 8.324-315.252-183.71-315.252-79.204 0-157.648 35.374-200.284 100.080-13.774-0.712-45.404-0.712-59.18 0-42.728-64.842-121.248-100.080-200.286-100.080-190.98 0-296.696 185.992-183.71 315.252-158.278 263.702 62.53 580.748 413.584 580.748 351.264 0 571.74-317.252 413.586-580.748zM246.304 481.196h83.058v116.15h-83.058v-116.15zM680.664 309.052v47.678c-121.012-41.83-264.71-18.396-375.178 67.942l0.492-49.794c102.202-92.734 263.492-115.75 374.686-65.826zM379.158 481.196h332.116v116.15h-332.116v-116.15z" />
<glyph unicode="&#xe90e;" glyph-name="wordpress" data-tags="wordpress" d="M123.4 621.2l203-556c-142 68.8-239.8 214.4-239.8 382.8 0 61.8 13.2 120.2 36.8 173.2zM799.2 469.4c0 52.6-18.8 89-35 117.4-21.6 35-41.8 64.8-41.8 99.8 0 39.2 29.6 75.6 71.4 75.6 1.8 0 3.6-0.2 5.6-0.4-75.8 69.4-176.6 111.8-287.4 111.8-148.6 0-279.4-76.2-355.6-191.8 10-0.4 19.4-0.6 27.4-0.6 44.4 0 113.4 5.4 113.4 5.4 23 1.4 25.6-32.4 2.8-35 0 0-23-2.6-48.6-4l155-460.8 93.2 279.2-66.2 181.6c-23 1.4-44.6 4-44.6 4-23 1.4-20.2 36.4 2.6 35 0 0 70.2-5.4 112-5.4 44.4 0 113.4 5.4 113.4 5.4 23 1.4 25.6-32.4 2.8-35 0 0-23-2.6-48.6-4l153.8-457.4 42.4 141.8c18 58.8 32 101 32 137.4zM519.4 410.8l-127.6-371c38.2-11.2 78.4-17.4 120.2-17.4 49.6 0 97 8.6 141.2 24.2-1.2 1.8-2.2 3.8-3 5.8l-130.8 358.4zM885.4 652.2c1.8-13.6 2.8-28 2.8-43.8 0-43.2-8-91.6-32.4-152.4l-130-375.8c126.6 73.8 211.6 210.8 211.6 367.8 0 74-18.8 143.6-52 204.2zM1008 448c0-273.6-222.6-496-496-496-273.6 0-496 222.6-496 496 0 273.6 222.4 496 496 496 273.4 0 496-222.4 496-496zM985.2 448c0 261-212.4 473.2-473.2 473.2-261 0-473.2-212.2-473.2-473.2s212.4-473.2 473.2-473.2c261 0 473.2 212.2 473.2 473.2z" />
<glyph unicode="&#xe90f;" glyph-name="wordpress-simple" data-tags="wordpress-simple" d="M512 944c-273.4 0-496-222.4-496-496 0-273.4 222.6-496 496-496s496 222.6 496 496c0 273.6-222.6 496-496 496zM66 448c0 64.6 13.8 126 38.6 181.4l212.8-582.8c-148.8 72.4-251.4 225-251.4 401.4zM512 2c-43.8 0-86 6.4-126 18.2l133.8 388.8 137-375.6c1-2.2 2-4.2 3.2-6.2-46.2-16.2-96-25.2-148-25.2zM573.4 657c26.8 1.4 51 4.2 51 4.2 24 2.8 21.2 38.2-2.8 36.8 0 0-72.2-5.6-118.8-5.6-43.8 0-117.4 5.6-117.4 5.6-24 1.4-26.8-35.4-2.8-36.8 0 0 22.8-2.8 46.8-4.2l69.4-190.4-97.6-292.6-162.4 483c26.8 1.4 51 4.2 51 4.2 24 2.8 21.2 38.2-2.8 36.8 0 0-72.2-5.6-118.8-5.6-8.4 0-18.2 0.2-28.8 0.6 79.8 121 216.8 201 372.6 201 116 0 221.8-44.4 301.2-117-2 0.2-3.8 0.4-5.8 0.4-43.8 0-74.8-38.2-74.8-79.2 0-36.8 21.2-67.8 43.8-104.6 17-29.6 36.8-67.8 36.8-123 0-38.2-14.6-82.4-34-144.2l-44.4-148.6-161.4 479.2zM736.2 62.6l136.2 393.8c25.4 63.6 34 114.4 34 159.8 0 16.4-1 31.6-3 45.8 34.8-63.6 54.6-136.4 54.6-214 0-164.6-89.2-308.2-221.8-385.4z" />
<glyph unicode="&#xe910;" glyph-name="windows" data-tags="windows" horiz-adv-x="896" d="M0 772.6l367.2 50.6v-354.8h-367.2v304.2zM0 123.4l367.2-50.6v350.4h-367.2v-299.8zM407.6 67.4l488.4-67.4v423.2h-488.4v-355.8zM407.6 828.6v-360.2h488.4v427.6l-488.4-67.4z" />
<glyph unicode="&#xe911;" glyph-name="whmcs" data-tags="whmcs" horiz-adv-x="896" d="M896 638v42.6l-57 17.6-4.4 20.8 40.2 41.4-20.8 38.8-58-15-14.4 15 15 56.4-38.2 23.2-42.6-42-21.4 6.4-14 52.8h-45.2l-12.4-52.8-24.2-6.4-39.4 42-38.8-22 16.2-55.4-16.2-16.8-57 15-22-38.2 41.4-42-5.8-20.8-57-15.6-0.6-43.4 57.6-15 4.8-24.2-40.2-39.8 20.8-37 59.2 15 14.4-17.2-16.2-53.8 39.8-23.2 38.8 40.8 23.2-5.8 13.4-57 45.2-0.6 13.4 57.6 23.2 7 41.4-43.2 40.8 24.2-17.6 56 15.6 16.2 57.6-17.6 20.6 40.2-41.8 37.6 4.4 24.2 58.2 14zM657.6 547.6c-62.6 0-113.6 50.8-113.6 113.6s50.8 113.6 113.6 113.6 113.6-50.8 113.6-113.6c0-63-50.8-113.6-113.6-113.6zM802.2 514.8l93.8-29v-79.8l-110.2-26.8-8.2-45.4 77.8-70.6-38.4-75.8-108 33.4-29.2-30.4 33.4-105-76.6-45.4-77.8 81-43.4-13.2-25.2-108-84.8 1-25.2 107.2-43.4 11.2-72.8-76.8-74.8 43.4 30.4 101-27.4 32.2-111-28.2-39.4 69.6 75.8 74.8-9.6 45.6-108 28.2 1 81.8 107 29.4 11.4 39.4-77.8 78.8 41.4 71.6 107.2-28.2 30.4 31.4-30.4 104 72.8 41.4 73.6-78.8 45.4 12.2 23.2 104h84.8l23.2-91.8-45.2 11.8-12.6 3.4-6.6-11.4-22-38.2-6.6-11.2 9.2-9.2 34.4-34.8-0.6-2-60-16.4-0.2-12.8-0.4-25.8c-95-20.8-166.6-105.6-166.6-207 0-116.6 94.6-211.4 211.4-211.4 101 0 185.4 70.8 206.4 165.6l40.2-0.6 3.2 13.4 11.2 48 3.8 1.2 43.6-45.4 11.6 6.8 40.8 24.2 11.6 7-4 13-13.6 42.4z" />
<glyph unicode="&#xe912;" glyph-name="wikipedia-w" data-tags="wikipedia-w" horiz-adv-x="1280" d="M1280 857.6l-0.6-24.4c-56.2-1.6-90-31.6-111.6-80.6-50-115.6-206.6-480-310.6-717.2h-27.2l-163.8 386.2c-65-127.2-136.6-260-198.4-386.2-0.6-0.6-30 0-30 0.6-93.8 219.4-192.2 437.2-286.2 657.2-22.8 53.4-98.8 140-151.2 139.4 0 6.2-0.6 20-0.6 28.4h323.8v-27.8c-38.4-2.2-105.6-26.6-86.6-68.4 43.8-99.4 207.2-480.6 251.2-577.2 30 59.4 115.6 218.4 150.6 285.6-27.8 56.6-117.2 267.8-145.6 320-19.4 35.6-72.2 38.8-111.6 39.4v27.8l285-0.6v-26.2c-38.8-1.2-76.2-15.6-58.8-52.2 37.8-80 61.2-136.2 96.2-209.4 11.2 21.6 69.4 138.8 96.2 201.6 17.8 41.2-7.8 57.2-77.2 58.8 0.6 7.2 0 20.6 0.6 27.2 88.8 0.6 222.2 0.6 246.2 1.2v-27.2c-45-1.6-91.6-25.6-116.2-63.4l-118.4-245.6c12.8-32.2 126.6-285.6 138.4-313.4l244.8 565.2c-17.2 46.2-72.8 56.2-94.4 56.6v27.8l255.6-2.2 0.4-1z" />
<glyph unicode="&#xe913;" glyph-name="whatsapp" data-tags="whatsapp" horiz-adv-x="896" d="M761.8 765.8c-83.8 84-195.4 130.2-314 130.2-244.8 0-444-199.2-444-444 0-78.2 20.4-154.6 59.2-222l-63-230 235.4 61.8c64.8-35.4 137.8-54 212.2-54h0.2c244.6 0 448.2 199.2 448.2 444 0 118.6-50.4 230-134.2 314zM447.8 82.6c-66.4 0-131.4 17.8-188 51.4l-13.4 8-139.6-36.6 37.2 136.2-8.8 14c-37 58.8-56.4 126.6-56.4 196.4 0 203.4 165.6 369 369.2 369 98.6 0 191.2-38.4 260.8-108.2s112.4-162.4 112.2-261c0-203.6-169.8-369.2-373.2-369.2zM650.2 359c-11 5.6-65.6 32.4-75.8 36-10.2 3.8-17.6 5.6-25-5.6s-28.6-36-35.2-43.6c-6.4-7.4-13-8.4-24-2.8-65.2 32.6-108 58.2-151 132-11.4 19.6 11.4 18.2 32.6 60.6 3.6 7.4 1.8 13.8-1 19.4s-25 60.2-34.2 82.4c-9 21.6-18.2 18.6-25 19-6.4 0.4-13.8 0.4-21.2 0.4s-19.4-2.8-29.6-13.8c-10.2-11.2-38.8-38-38.8-92.6s39.8-107.4 45.2-114.8c5.6-7.4 78.2-119.4 189.6-167.6 70.4-30.4 98-33 133.2-27.8 21.4 3.2 65.6 26.8 74.8 52.8s9.2 48.2 6.4 52.8c-2.6 5-10 7.8-21 13.2z" />
<glyph unicode="&#xe914;" glyph-name="whatsapp-square" data-tags="whatsapp-square" horiz-adv-x="896" d="M448 714.4c-145.4 0-263.6-118.2-263.8-263.6 0-49.8 14-98.4 40.4-140.2l6.2-10-26.6-97.2 99.8 26.2 9.6-5.8c40.4-24 86.8-36.8 134.2-36.8h0.2c145.2 0 266.6 118.2 266.6 263.6 0 70.4-30.4 136.6-80.2 186.4-50 50-116 77.4-186.4 77.4zM603 337.6c-6.6-18.6-38.2-35.4-53.4-37.6-25.2-3.8-44.8-1.8-95 19.8-79.4 34.4-131.4 114.4-135.4 119.6s-32.4 43-32.4 82 20.4 58.2 27.8 66.2c7.2 8 15.8 10 21.2 10 5.2 0 10.6 0 15.2-0.2 4.8-0.2 11.4 1.8 17.8-13.6 6.6-15.8 22.4-54.8 24.4-58.8s3.4-8.6 0.6-13.8c-15.2-30.4-31.4-29.2-23.2-43.2 30.6-52.6 61.2-70.8 107.8-94.2 8-4 12.6-3.4 17.2 2 4.6 5.2 19.8 23.2 25 31 5.2 8 10.6 6.6 17.8 4s46.2-21.8 54.2-25.8 13.2-6 15.2-9.2c1.8-3.8 1.8-19.8-4.8-38.2zM800 896h-704c-53 0-96-43-96-96v-704c0-53 43-96 96-96h704c53 0 96 43 96 96v704c0 53-43 96-96 96zM447.8 133.6c-53.2 0-105.4 13.4-151.6 38.6l-168.2-44.2 45 164.4c-27.8 48-42.4 102.6-42.4 158.6 0.2 174.8 142.4 317 317.2 317 84.8 0 164.4-33 224.4-93 59.8-60 95.8-139.6 95.8-224.4 0-174.8-145.4-317-320.2-317z" />
<glyph unicode="&#xe915;" glyph-name="weixin" data-tags="weixin" horiz-adv-x="1152" d="M770.4 624.8c12.8 0 25.2-0.6 37.6-2.2-33.2 156.8-201.4 273.4-392.6 273.4-214.4 0-389.4-145.6-389.4-330.8 0-106.8 58.6-195 155.8-263.2l-38.6-117.2 136 68.2c48.8-9.6 87.6-19.4 136.4-19.4 12.4 0 24.2 0.6 36.6 1.6-8 25.8-12.4 53.2-12.4 81.6-0.2 169.8 145.8 308 330.6 308zM561.4 730.6c29 0 48.4-19.4 48.4-48.8 0-29-19.4-48.4-48.4-48.4-29.6 0-58.6 19.4-58.6 48.4 0.2 29.4 29.2 48.8 58.6 48.8zM288.6 633.4c-29 0-58.6 19.4-58.6 48.4 0 29.6 29.6 48.8 58.6 48.8 29.6 0 48.8-19.4 48.8-48.8 0-29.2-19.2-48.4-48.8-48.4zM1126 321.2c0 155.8-155.8 282.6-330.8 282.6-185.4 0-330.8-126.8-330.8-282.6s145.6-282.6 330.8-282.6c38.6 0 77.8 10.2 117.2 19.8l106.8-58.6-29.6 97.2c78.4 58.8 136.4 136.6 136.4 224.2zM687.8 370.2c-19.4 0-38.6 19.4-38.6 39.2 0 19.4 19.4 38.6 38.6 38.6 29.6 0 48.8-19.4 48.8-38.6 0-20-19.4-39.2-48.8-39.2zM902 370.2c-19.4 0-38.6 19.4-38.6 39.2 0 19.4 19.4 38.6 38.6 38.6 29 0 48.8-19.4 48.8-38.6 0.2-20-19.8-39.2-48.8-39.2z" />
<glyph unicode="&#xe916;" glyph-name="weibo" data-tags="weibo" d="M814 604.8c15.2 48-26.8 93.6-74.8 83.4-44-9.6-57.6 56.2-14.2 65.6 100.2 21.8 184.6-74.2 153-169.6-13.6-42.4-77.6-21.6-64 20.6zM429.6 66.6c-212.6 0-429.6 102.8-429.6 272.6 0 88.6 56 190.8 152.6 287.4 199.4 199.4 406.4 201.8 347.2 11.4-8-26.2 24.6-11.4 24.6-12 159 67.2 281 33.6 228-102.8-7.4-18.8 2.2-21.8 16.6-26.2 271.4-84.6 69.6-430.4-339.4-430.4zM717 359.2c-10.8 111.4-157 188-326.8 171.4-169.6-17.2-297.6-120.6-286.8-232s157-188 326.8-171.4c169.6 17.2 297.6 120.6 286.8 232zM695.8 889.8c-51.8-11.2-33.6-87.4 16.6-76.6 144.6 30.4 269.6-105.6 223.4-248-14.8-48.4 58.2-74 74.8-24 63.8 199.6-110.2 391.8-314.8 348.6zM538.8 267.8c-34.2-77.6-133.6-120-218.2-92.6-81.6 26.2-116 106.8-80.6 179.4 35.4 70.8 126.2 110.8 206.8 90.2 84-21.6 126.2-100.4 92-177zM366.2 327.8c-25.8 10.8-60-0.6-76-25.8-16.6-25.8-8.6-56 17.2-68 26.2-12 61.6-0.6 78.2 25.8 16 26.2 7.4 56.6-19.4 68zM431.4 354.6c-10.2 3.4-22.8-1.2-28.6-10.8-5.8-10.2-2.8-21.2 7.4-25.8 10.2-4 23.4 0.6 29.2 10.8 5.6 10.4 2.2 21.8-8 25.8z" />
<glyph unicode="&#xe917;" glyph-name="vuejs" data-tags="vuejs" horiz-adv-x="896" d="M713.8 831.4h-153.8l-112-177.2-96 177.2h-352l448-767.4 448 767.4h-182.2zM111.4 767.4h107.6l229-396.4 228.8 396.4h107.6l-336.4-576.4-336.6 576.4z" />
<glyph unicode="&#xe918;" glyph-name="vnv" data-tags="vnv" horiz-adv-x="1280" d="M209.8 256c-68.2 0-92.8 60.8-92.8 60.8l-111.8 223s-20.8 36.2 20.8 36.2h65.6c20.8 0 26.4-17.4 37.6-36.2l73.4-149s10.4-26.2 42.2-26.2 42.2 26.2 42.2 26.2l73.4 149c11.2 19 16.8 36.2 37.6 36.2h65.6c41.6 0 20.8-36.2 20.8-36.2l-111.6-223s-24.4-60.8-92.8-60.8h-70.2zM999.8 256c-68.2 0-92.8 60.8-92.8 60.8l-111.8 223s-20.8 36.2 20.8 36.2h65.6c20.8 0 26.4-17.4 37.6-36.2l73.4-149s10.4-26.2 42.2-26.2 42.2 26.2 42.2 26.2l73.6 149c11.2 19 16.8 36.2 37.6 36.2h65.8c41.6 0 20.8-36.2 20.8-36.2l-111.8-223s-24.4-60.8-92.8-60.8h-70.4zM675.2 576c68.2 0 92.8-60.8 92.8-60.8l111.8-223s20.8-36.2-20.8-36.2h-65.6c-20.8 0-26.4 17.4-37.6 36.2l-73.4 149s-10.4 26.2-42.2 26.2c-31.8 0-42.2-26.2-42.2-26.2l-73.4-149c-11.2-18.8-16.8-36.2-37.6-36.2h-65.8c-41.6 0-20.8 36.2-20.8 36.2l111.8 223s24.4 60.8 92.8 60.8h70.2z" />
<glyph unicode="&#xe919;" glyph-name="vk" data-tags="vk" horiz-adv-x="1152" d="M1090 724.6c7.4 25 0 43.4-35.6 43.4h-117.8c-30 0-43.8-15.8-51.2-33.4 0 0-60-146.2-144.8-241-27.4-27.4-40-36.2-55-36.2-7.4 0-18.8 8.8-18.8 33.8v233.4c0 30-8.4 43.4-33.2 43.4h-185.2c-18.8 0-30-14-30-27 0-28.4 42.4-35 46.8-115v-173.6c0-38-6.8-45-21.8-45-40 0-137.2 146.8-194.8 314.8-11.6 32.6-23 45.8-53.2 45.8h-117.8c-33.6 0-40.4-15.8-40.4-33.4 0-31.2 40-186.2 186.2-391 97.4-139.8 234.6-215.6 359.4-215.6 75 0 84.2 16.8 84.2 45.8 0 133.6-6.8 146.2 30.8 146.2 17.4 0 47.4-8.8 117.4-76.2 80-80 93.2-115.8 138-115.8h117.8c33.6 0 50.6 16.8 40.8 50-22.4 69.8-173.8 213.4-180.6 223-17.4 22.4-12.4 32.4 0 52.4 0.2 0.2 144 202.6 158.8 271.2z" />
<glyph unicode="&#xe91a;" glyph-name="vine" data-tags="vine" horiz-adv-x="768" d="M768 450.6v-104.2c-36.8-8.4-73.8-12.2-104.2-12.2-73.8-154.8-206-287.6-250.2-312.4-28-15.8-54.2-16.8-85.4 1.6-54.2 32.6-259.8 201.2-328.2 731.2h149c37.4-318.2 129-481.4 229.6-603.6 55.8 55.8 109.6 130.2 151.2 213.8-99.6 50.6-160.2 161.8-160.2 291.2 0 131.2 75.4 230.2 204.4 230.2 229.8 0 212.4-255.8 163.2-363 0 0-92.8-18.4-127 41 6.8 22.6 16.4 61.6 16.4 97 0 62.6-22.6 93.2-56.8 93.2-36.4 0-61.6-34.2-61.6-100 0.2-158.4 118.8-237.4 259.8-203.8z" />
<glyph unicode="&#xe91b;" glyph-name="vimeo" data-tags="vimeo" horiz-adv-x="896" d="M806.4 896h-716.8c-49.4 0-89.6-40.2-89.6-89.6v-716.8c0-49.4 40.2-89.6 89.6-89.6h716.8c49.4 0 89.6 40.2 89.6 89.6v716.8c0 49.4-40.2 89.6-89.6 89.6zM754 598.4c-2.8-63-46.8-149.4-132-258.8-88-114.4-162.6-171.6-223.4-171.6-37.8 0-69.6 34.8-95.8 104.6-51 186.6-72.8 296-114.8 296-4.8 0-21.8-10.2-50.8-30.4l-30.4 39.2c74.6 65.6 145.8 138.4 190.4 142.4 50.4 4.8 81.4-29.6 93-103.4 41.4-262.4 59.8-302 135.2-183.2 27 42.8 41.6 75.4 43.6 97.8 7 66.4-51.8 61.8-91.6 44.8 31.8 104.2 92.6 154.8 182.4 152 66.6-1.8 98-45 94.2-129.4z" />
<glyph unicode="&#xe91c;" glyph-name="vimeo-v" data-tags="vimeo-v" horiz-adv-x="896" d="M895.6 652.8c-4-87.2-64.8-206.6-182.8-358.2-121.8-158.4-224.8-237.6-309.2-237.6-52.2 0-96.4 48.2-132.6 144.6-70.4 258.4-100.4 409.8-158.6 409.8-6.8 0-30.2-14.2-70.4-42.2l-42 54.4c103.2 90.6 201.8 191.4 263.6 197 69.8 6.8 112.6-41 128.8-143 57.4-363 82.8-417.8 187.2-253.4 37.4 59.2 57.6 104.2 60.4 135.2 9.6 91.8-71.6 85.6-126.6 62 44 144.2 128.2 214.2 252.4 210.2 91.6-2.4 135-62.2 129.8-178.8z" />
<glyph unicode="&#xe91d;" glyph-name="vimeo-square" data-tags="vimeo-square" horiz-adv-x="896" d="M800 896h-704c-53 0-96-43-96-96v-704c0-53 43-96 96-96h704c53 0 96 43 96 96v704c0 53-43 96-96 96zM767.6 596.8c-2.8-62.2-46.4-147.6-130.6-255.8-87-113-160.6-169.6-220.8-169.6-37.4 0-68.8 34.4-94.6 103.2-50.4 184.6-71.8 292.8-113.4 292.8-4.8 0-21.6-10-50.2-30.2l-30 38.8c73.8 64.8 144.2 136.8 188.2 140.8 49.8 4.8 80.4-29.2 92-102.2 41-259.2 59.2-298.4 133.6-181 26.8 42.4 41.2 74.4 43 96.6 6.8 65.6-51.2 61.2-90.4 44.4 31.4 103 91.6 153 180.2 150.2 65.8-2 96.8-44.8 93-128z" />
<glyph unicode="&#xe91e;" glyph-name="viber" data-tags="viber" d="M888 860.2c-25.4 23.4-128.2 98-357.4 99 0 0-270.2 16.2-401.8-104.6-73.2-73.2-99-180.6-101.8-313.6s-6.2-382.2 234-449.8h0.2l-0.2-103.2s-1.6-41.8 26-50.2c33.2-10.4 52.8 21.4 84.6 55.6 17.4 18.8 41.4 46.4 59.6 67.4 164.4-13.8 290.6 17.8 305 22.4 33.2 10.8 221 34.8 251.4 284 31.6 257.2-15.2 419.6-99.6 493zM915.8 386c-25.8-208-178-221.2-206-230.2-12-3.8-123-31.4-262.4-22.4 0 0-104-125.4-136.4-158-10.6-10.6-22.2-9.6-22 11.4 0 13.8 0.8 171.4 0.8 171.4-0.2 0-0.2 0 0 0-203.6 56.4-191.6 268.6-189.4 379.6s23.2 202 85.2 263.2c111.4 101 340.8 86 340.8 86 193.8-0.8 286.6-59.2 308.2-78.8 71.4-61.2 107.8-207.6 81.2-422.2zM637.8 547.6c0.8-17.2-25-18.4-25.8-1.2-2.2 44-22.8 65.4-65.2 67.8-17.2 1-15.6 26.8 1.4 25.8 55.8-3 86.8-35 89.6-92.4zM678.4 525c2 84.8-51 151.2-151.6 158.6-17 1.2-15.2 27 1.8 25.8 116-8.4 177.8-88.2 175.6-185-0.2-17.2-26.2-16.4-25.8 0.6zM772.4 498.2c0.2-17.2-25.8-17.4-25.8-0.2-1.2 163-109.8 251.8-241.6 252.8-17 0.2-17 25.8 0 25.8 147.4-1 266-102.8 267.4-278.4zM749.8 302v-0.4c-21.6-38-62-80-103.6-66.6l-0.4 0.6c-42.2 11.8-141.6 63-204.4 113-32.4 25.6-62 55.8-84.8 84.8-20.6 25.8-41.4 56.4-61.6 93.2-42.6 77-52 111.4-52 111.4-13.4 41.6 28.4 82 66.6 103.6h0.4c18.4 9.6 36 6.4 47.8-7.8 0 0 24.8-29.6 35.4-44.2 10-13.6 23.4-35.4 30.4-47.6 12.2-21.8 4.6-44-7.4-53.2l-24-19.2c-12.2-9.8-10.6-28-10.6-28s35.6-134.6 168.6-168.6c0 0 18.2-1.6 28 10.6l19.2 24c9.2 12 31.4 19.6 53.2 7.4 29.4-16.6 66.8-42.4 91.6-65.8 14-11.4 17.2-28.8 7.6-47.2z" />
<glyph unicode="&#xe91f;" glyph-name="viadeo" data-tags="viadeo" horiz-adv-x="896" d="M552.4 659v-1.4c-35.8 105.2-85.2 206.8-141.6 302.4 86.6-58.4 134-200 141.6-301zM617.8 415.6c15.2-36.4 22-75 22-114 0-155.4-115.6-282-275.6-278.8l7.6 0.6c148.4 93.4 218.6 237.2 218.6 410.2 0 76.2-13 151.8-37.8 224 2-23.4 2-47.4 2-70.8 0-183.6-36.2-483.2-233.2-560-131.4 22.8-222.6 137.2-222.6 274.8 0 151.2 114.8 284.6 270.8 284.6 33.6 0 67.4-6.2 98.2-19.2 3.4 30.2 13 59.8 26.8 86.6-39.8 14.4-82.4 21.4-125 21.4-323 0-477.4-391.8-259.8-627.4 135.8-149.2 384-147.8 519.6 0 113.2 122.6 121.8 284.8 72.8 402-25.4-16-54.2-27.8-84.4-34zM836.2 936.6c-62-133-162.6-94.4-231.6-160.2-24.8-24-41.2-68-41.2-101 0-28.2 9-54.2 24-77.6 94.8 22 196.6 92 236.4 181.4-1.4-11-9.6-28.8-14.4-38.4-40.6-71.4-129.2-131.2-199.4-169.8 29.6-28.8 67.4-51.6 110-51.6 158 0 220.2 269.2 116.2 417.2z" />
<glyph unicode="&#xe920;" glyph-name="viadeo-square" data-tags="viadeo-square" horiz-adv-x="896" d="M800 896h-704c-53 0-96-43-96-96v-704c0-53 43-96 96-96h704c53 0 96 43 96 96v704c0 53-43 96-96 96zM561.4 197.6c-84.8-92.4-240-93.2-324.8 0-136 147.2-39.6 392.2 162.4 392.2 26.6 0 53.2-4.2 78.2-13.4-8.6-16.8-14.6-35.2-16.8-54.2-19.4 8.2-40.4 12-61.4 12-97.6 0-169.2-83.4-169.2-177.8 0-86 57-157.4 139-171.8 123 48 145.8 235.2 145.8 350 0 14.6 0 29.6-1.2 44.2-22.4 65.8-53.2 129.2-88.4 189 54.2-36.6 83.8-125 88.4-188.2v-0.8c15.4-45 23.6-92.4 23.6-140 0-108.2-43.8-198-136.6-256.4l-4.8-0.4c100-2 172.4 77.2 172.4 174.4 0 24.4-4.2 48.6-13.8 71.4 19 3.8 37 11.2 52.8 21 30.6-73.2 25.2-174.6-45.6-251.2zM618 492.6c-26.6 0-50.2 14.2-68.8 32.2 43.8 24 99.2 61.4 124.6 106 3 6 8.2 17.2 9 24-25-55.8-88.4-99.6-147.8-113.4-9.4 14.6-15 31-15 48.6 0 20.6 10.4 48.2 25.8 63.2 43.2 41 106 17 144.8 100 65-92.4 26.2-260.6-72.6-260.6z" />
<glyph unicode="&#xe921;" glyph-name="viacoin" data-tags="viacoin" horiz-adv-x="768" d="M768 896h-128l-161.4-384h-189l-161.6 384h-128l96-224h-96v-96h137l27.6-64h-164.6v-96h205.6l178.4-416 178.4 416h205.6v96h-164.6l27.6 64h137v96h-96l96 224zM384 288l-54 128h108l-54-128z" />
<glyph unicode="&#xe922;" glyph-name="vaadin" data-tags="vaadin" horiz-adv-x="896" d="M449 678.6c3 35.2 9.8 105.4 99.6 105.4h197.2c41.4 0 64.2 15.6 64.2 43.2v24.6c0 24.4 18.6 44.2 43 44.2s43-19.8 43-44.2v-73c0-85.8-43-124-133.6-124h-201c-60.2 0-66-29.4-66-54.2 0-2.6-0.2-5-0.4-7.4-1.4-24.6-21.8-44.4-46.8-44.4s-45.4 19.6-46.8 44.4c-0.2 2.4-0.4 4.8-0.4 7.4 0 24.6-6 54.2-66 54.2h-201.4c-90.6 0-133.6 38.2-133.6 124v73c0 24.4 18.8 44.2 43.2 44.2s43-19.8 43-44.2v-24.6c0-27.6 22.8-43.2 64.2-43.2h197.2c89.6 0 96.6-70.2 99.6-105.4h1.8zM448 48c23 0 42.8 14 51.4 32.6 2.2 3.6 194.2 339.2 196.4 342.8 23.8 39.2-6.4 88.6-54.4 88.6-27.8 0-46.6-12.8-59.6-40.6l-133.8-235.4-133.8 235.4c-12.8 27.8-31.8 40.6-59.6 40.6-48 0-78.2-49.2-54.4-88.6 2.2-3.8 194.2-339.2 196.4-342.8 8.6-18.6 28.4-32.6 51.4-32.6z" />
<glyph unicode="&#xe923;" glyph-name="ussunnah" data-tags="ussunnah" d="M313.6 389.8l11.4-28.8h-16.4c-2.6 6.4-6.2 15.4-7.6 19-5 12.6-2.2 16.8 0 20 3.8 5.4 6.4 8.8 7.2 10.4 0-4.4 1.6-11.4 5.4-20.6zM908.2 352.2c-4.2-27.6-11.4-54.2-21-79.4l86-46.8-89.6 37.6c-10.6-26.4-24-51.2-39.8-74.4l68.4-60.4-73.6 52.8c-16.8-23.6-36-45.2-57.4-64.6l49.8-69.4-56.2 63.6c-22-19.2-46.2-36-72.2-50.2l31.4-74.4-38.6 70.6c-26.2-13.6-54-24.2-83.2-31.8l13.4-76.8-21 74.8c-28.6-6.8-58.4-10.6-89-10.8l-3.6-76.6-3.8 76.8c-30.6 0.2-60.4 4-89 10.6l-21.2-74.6 13.4 76.4c-29.2 7.4-57.2 18.2-83.4 31.6l-38.4-70.2 31.2 74c-26 14-50.4 30.8-72.4 50.2l-55.8-63.2 49.4 68.8c-21.4 19.4-40.8 41-57.6 64.6l-73-52.4 67.8 59.8c-15.8 23.2-29.2 48.2-40 74.6l-88.8-37.4 85.2 46.4c-9.6 25.4-16.8 52.2-21 79.8l-102-18 100.6 28.4c-2.2 17-3.4 34.2-3.4 51.8 0 9.4 0.4 18.8 1 28.2l-110.8 5.8 112 5.6c2.6 26.2 7.6 51.6 15 76.2l-114.2 32.2 117.8-20.8c8 24 18.2 47 30.4 68.8l-110.2 60 116.6-49.2c12.6 21.2 27 40.8 43.2 59.2l-99 87.2 107.8-77.4c16.2 17.2 34 33 53.2 47.2l-80 111.2 91.2-103.2c19 13.2 39.4 24.6 60.6 34.4l-54.6 129.8 67.6-124.2c21 8.8 42.8 15.8 65.4 20.8l-24.8 141.4 39-138.4c22 4.2 44.6 6.4 67.6 6.8l7.4 144.4 7.2-144.4c23-0.4 45.6-2.8 67.6-7l39.2 138.6-24.8-141.4c22.6-5.2 44.4-12.2 65.2-21l67.8 124.4-54.8-130.2c21.2-9.8 41.4-21.4 60.4-34.4l91.6 103.6-80.2-111.8c19-14.2 36.8-30 53-47.2l108.4 77.8-99.4-87.8c16-18.2 30.4-37.8 43-58.8l117.4 49.4-111-60.4c12.2-21.8 22.2-44.6 30.2-68.6l118.6 20.8-115-32.4c7.4-24.4 12.4-49.8 15-75.8l112.6-5.4-112-5.6c0.6-9.2 1-18.6 1-28.2 0-17.4-1.2-34.6-3.2-51.6l101.4-28.6-103 18.2zM864.6 414.2c0 195-158 353-353 353s-353-158-353-353 158-353 353-353 353 158 353 353zM816.6 414.2c0-168.6-136.6-305.2-305.2-305.2s-305.2 136.6-305.2 305.2 136.6 305.2 305.2 305.2 305.2-136.6 305.2-305.2zM390 478c0-4.2 2.6-7.6 7.2-10.2 6.6-3.8 12.4-9.2 16.4-16.4 5.6 11.4 8.6 19 8.6 22.4 0 4.4-2.2 8.8-6.4 14-4.2 5-6.4 10.4-6.6 15.4-13-13.6-19.2-21.8-19.2-25.2zM308.6 516c0-4.2 2.6-7.6 7.2-10.2 7-3.8 12.4-9.2 16.4-16.4 5.6 11.4 8.6 19 8.6 22.4 0 4.4-2.2 8.8-6.4 14-4.2 5-6.4 10.4-6.6 15.4-13-13.6-19.2-21.8-19.2-25.2zM270.6 516c0-4.2 2.6-7.6 7.2-10.2 6.6-3.8 12.4-9.2 16.4-16.4 5.6 11.4 8.6 19 8.6 22.4 0 4.4-2.2 8.8-6.4 14-4.2 5-6.4 10.4-6.6 15.4-12.8-13.6-19.2-21.8-19.2-25.2zM680.4 340.2c-16.8 6-17.4 13.6-17.4 31.2v224.6c-16.4-25-28.4-37.2-36-37.2 12.6-28.8 19-47.8 19-56.6v-128.6c0-4.4-4.4-13-9.4-13h-36c-5.6 15-20.4 53.8-30.6 80.6-4-5-14.4-18.4-21.4-27.4 4.8-3.2 8.2-7.2 10.4-12.6 5.2-13.4 12.8-33 15.8-40.4h-18.4c-7.8 20.8-19.2 50.8-23.6 62.2-4-5-14.4-18.4-21.4-27.4 4.8-3.2 8.2-7.2 10.4-12.6 1.6-4 5.6-14.6 8.6-21.8h-18.4c-3 8.2-11.2 29.2-16.8 44-4-5-14.4-18.4-21.4-27.4 5-3.2 8.6-7.2 10.4-12.6 0.4-1.2 1-2.8 1.2-3.4h-35.4c-9.2 27.8-22.8 55.4-22.8 68.2 0 4.4 0.6 10.2 2.2 16.4-17.6-21.6-28-31.8-28-50 0-15 20.8-56.6 20.8-66.6 0-3.4-1-6.6-2.8-9.8-19.2 25.4-31 41.4-37.6 41.4h-24l-22.4 56c-7.6 19.2-11.4 32-11.4 37.6 0 7.6 1 15.4 3.4 24.4-2-2.6-7.4-9.4-11-14.2-1.6 4.2-6.2 15.4-9.2 23-4.2-5-15-18.2-22.4-27.2 1.8-4.6 6.6-16.2 9.8-24.4-5-6.6-18.2-23.6-27.2-35.4-8-10.6-11.6-26.6-5.4-43.6 5-13.4 4-15.8-3.4-28.2h123.4c11 0 28.6-28 31-44 26.4 32 30.8 39.2 33.6 43.2h214c7.8 0 14.4 3.8 19.8 11.6zM720.6 393.4v203.2c-18-25-31.8-37.2-41.4-37.2 14.2-28.8 21.4-47.8 21.4-56.6v-132.6c0-35 17.2-40.8 48-40.8 16.2 0 25 1.6 27.4 5.4-8.6 3.2-15.2 5-19.8 6.6-16.2 6.4-35.6 14.8-35.6 52z" />
<glyph unicode="&#xe924;" glyph-name="usb" data-tags="usb" horiz-adv-x="1280" d="M1283 448c0-6.2-3.4-12.2-9-15l-178.2-107c-2.8-1.6-5.6-2.8-9-2.8-2.8 0-6.2 0.6-9 2.2-5.6 3.4-9 9-9 15.6v71.2h-477.4c50.6-79.2 81-213.8 139.2-213.8h53.4v53.6c0 10 7.8 17.8 17.8 17.8h178.2c10 0 17.8-7.8 17.8-17.8v-178.2c0-10-7.8-17.8-17.8-17.8h-178.2c-10 0-17.8 7.8-17.8 17.8v53.4h-53.4c-150.8 0-162.2 285-249.4 285h-200.6c-16.2-61.2-71.8-107-138-107-78.6 0.2-142.6 64.2-142.6 142.8s64 142.6 142.6 142.6c66.2 0 122-45.6 138-107 78.2 0 87.8-19 149.2 120.8 80.2 178.2 116.2 164.2 217.8 164.2 15 41.8 54 71.2 100.8 71.2 59 0 107-47.8 107-107s-47.8-107-107-107c-46.8 0-85.8 29.6-100.8 71.2h-59.6c-58.2 0-88.6-134.8-139.2-213.8h620.2v71.2c0 6.6 3.4 12.2 9 15.6s12.8 2.8 17.8-0.6l178.2-107c5.6-2.2 9-8.2 9-14.4z" />
<glyph unicode="&#xe925;" glyph-name="untappd" data-tags="untappd" horiz-adv-x="1280" d="M802.6 860.2c-159.6-320.2-169.2-305-175.8-346.4l-10.4-65.6c-3.8-24-13.2-47-27.4-66.8l-297.8-415.6c-15.2-21.2-40.8-32.4-66.8-29.2-80.6 10-155.6 64.4-190.6 137-11.4 23.6-9 51.6 6.2 72.8l297.8 415.8c14.2 19.8 32.8 36 54.4 47.4l58.6 31c37 19.6 19.4 23.8 271.2 277.8 2 9.6 2 14.6 7.2 16 6 1.4 13.2 2 12.6 9.2l-0.8 9.2c-0.4 3.8 2.6 7.2 6.4 7.2 9 0.2 26.4-2.4 51.2-20 24.6-17.8 32.8-33.6 35.4-42.2 1.2-3.6-1.2-7.4-4.8-8.4l-9-2.2c-6.8-1.8-5-8.8-4.6-14.8 0.2-5.6-4.6-7.2-13-12.2zM460.2 887.2c6.8-1.8 5-8.8 4.6-14.8-0.4-5.4 4.2-7 12.8-12 15.8-31.8 30.6-61 44.4-88 1.4-2.6 4.6-3 6.6-1 22.4 24 49.2 52.4 81 85.2 2.6 2.8 2.8 7 0.2 9.8-16 16.4-33 33.8-51.2 52.2-2 9.4-2 14.6-7.2 16-6 1.6-13.2 2-12.6 9.2 0.6 6.6 2.8 16.2-5.6 16.4-9 0.2-26.4-2.2-51.2-20-24.6-17.8-32.8-33.6-35.4-42.2-2.8-8.4 7.2-9.2 13.6-10.8zM1240 146.6l-297.6 415.8c-26.4 37-53.2 46.8-112.8 78.2-22.4 11.8-28.4 21.8-61 57.8-2 2.2-5.8 1.8-7.2-1-92.6-177.6-94.2-165.6-98-189.6-3.4-21.4-2.6-40 0.6-59.6 3.8-24 13.2-47 27.4-66.8l297.8-415.8c15.2-21.2 40.4-32.4 66.2-29.4 80.6 9.8 156 64 191.4 137.2 10.8 23.8 8.6 51.8-6.8 73.2z" />
<glyph unicode="&#xe926;" glyph-name="uniregistry" data-tags="uniregistry" horiz-adv-x="768" d="M562.2 519.8h205.8v29.6h-205.8v-29.6zM562.2 594h205.8v24.8h-205.8v-24.8zM562.2 445.6h205.8v34.6h-205.8v-34.6zM246.8 272.2h-229.8c5.2-17 11.6-33.6 19.2-49.6h276.6c-25.8 11.4-48.2 28.4-66 49.6zM538.2 297h219.4c3.6 14.6 6.2 29.4 7.8 44.6h-208.8c-4.2-15.8-10.4-30.8-18.4-44.6zM455.2 222.8h278.8c7.4 16 11.6 32.4 17 49.6h-230c-17.6-21.4-40.2-38.4-65.8-49.6zM768 896h-205.8v-5h205.8v5zM384 0c79 0 152.4 23.6 213.6 64.4h-427c61-40.8 134.4-64.4 213.4-64.4zM562.2 668.4h205.8v19.6h-205.8v-19.6zM562.2 742.6h205.8v14.8h-205.8v-14.8zM562.2 816.8h205.8v9.8h-205.8v-9.8zM205.8 618.8h-205.8v-24.8h205.8v24.8zM77.6 148.6h610.6c13.4 17 25.2 35.2 35.6 54.4h-677.8c10.4-19.2 18.4-37.4 31.6-54.4zM205.8 386.2v24.8h-205.8v-24.8c0-5 0-10 0.2-14.8h206.2c-0.4 4.8-0.6 9.8-0.6 14.8zM562.2 386.2c0-5-0.2-10-0.8-14.8h206.2c0.2 5 0.4 9.8 0.4 14.8v24.8h-205.8v-24.8zM156.2 74.2h455.4c23.6 17.4 45.4 37.2 64.4 59.4h-586.2c19.2-22 42.8-42 66.4-59.4zM205.8 826.6h-205.8v-9.8h205.8v9.8zM205.8 896h-205.8v-5h205.8v5zM205.8 549.4h-205.8v-29.6h205.8v29.6zM205.8 480.2h-205.8v-34.6h205.8v34.6zM205.8 688h-205.8v-19.8h205.8v19.8zM205.8 757.4h-205.8v-14.8h205.8v14.8zM211.4 341.6h-208.8c1.8-15.2 4.4-30 7.8-44.6h219.4c-8 13.8-14.4 28.8-18.4 44.6z" />
<glyph unicode="&#xe927;" glyph-name="uikit" data-tags="uikit" horiz-adv-x="896" d="M887.8 704v-512l-451.8-256-436 256v428.6l175.2-90.2v-234l267-151 271.6 151v302l-202.2 115.2 175.2 106.2 201-115.8zM617.2 861.8l-169.6 98.2-177.2-109.6 172-94.6 174.8 106z" />
<glyph unicode="&#xe928;" glyph-name="uber" data-tags="uber" horiz-adv-x="896" d="M828.2 896h-760.4c-37.4 0-67.8-30.4-67.8-67.8v-760.2c0-37.6 30.4-68 67.8-68h760.2c37.4 0 67.8 30.4 67.8 67.8v760.4c0.2 37.4-30.2 67.8-67.6 67.8zM475.2 177.8c-149.2-15-282.4 93.8-297.4 243h188.8v-40.8c0-7.4 6-13.6 13.6-13.6h135.8c7.4 0 13.6 6 13.6 13.6v135.8c0 7.4-6 13.6-13.6 13.6h-135.8c-7.4 0-13.6-6-13.6-13.6v-40.8h-188.8c14 138.8 130.8 244.4 270.2 244.4s256.2-105.6 270.2-244.4c15-149-93.8-282.2-243-297.2z" />
<glyph unicode="&#xe929;" glyph-name="typo3" data-tags="typo3" horiz-adv-x="867" d="M661.6 278c-14-4.6-23.2-4.6-37-4.6-114.4 0-281.2 397-281.2 529.8 0 49.4 10.8 64.8 27.8 78.8-139-17-298.6-68-352.6-132.8-10.8-15.4-18.6-41.6-18.6-74.2 0-207 213.6-675 368.2-675 72.6 0 194.6 119 293.4 278zM589 896c143.6 0 277.6-23.2 277.6-105 0-165.2-105-364.6-157.6-364.6-95.8 0-203.4 264.2-203.4 397 0 61.8 23.2 72.6 83.4 72.6z" />
<glyph unicode="&#xe92a;" glyph-name="twitter" data-tags="twitter" d="M918.74 656.568c0.65-9.096 0.65-18.194 0.65-27.29 0-277.44-211.166-597.116-597.116-597.116-118.904 0-229.36 34.438-322.274 94.212 16.894-1.948 33.136-2.598 50.68-2.598 98.11 0 188.426 33.136 260.548 89.664-92.264 1.95-169.584 62.376-196.224 145.544 12.996-1.948 25.99-3.248 39.636-3.248 18.842 0 37.686 2.6 55.228 7.146-96.162 19.494-168.286 103.96-168.286 205.97v2.598c27.938-15.594 60.428-25.34 94.862-26.638-56.528 37.686-93.562 102.010-93.562 174.782 0 38.984 10.394 74.72 28.588 105.908 103.31-127.35 258.6-210.516 432.73-219.614-3.248 15.594-5.198 31.836-5.198 48.080 0 115.656 93.564 209.868 209.868 209.868 60.426 0 115.004-25.34 153.34-66.274 47.43 9.096 92.912 26.64 133.198 50.68-15.596-48.732-48.732-89.666-92.264-115.654 42.234 4.546 83.168 16.244 120.852 32.486-28.584-41.582-64.322-78.616-105.256-108.506z" />
<glyph unicode="&#xe92b;" glyph-name="twitter-square" data-tags="twitter-square" horiz-adv-x="896" d="M800 896h-704c-53 0-96-43-96-96v-704c0-53 43-96 96-96h704c53 0 96 43 96 96v704c0 53-43 96-96 96zM702.2 578.4c0.4-5.6 0.4-11.4 0.4-17 0-173.4-132-373.2-373.2-373.2-74.4 0-143.4 21.6-201.4 58.8 10.6-1.2 20.8-1.6 31.6-1.6 61.4 0 117.8 20.8 162.8 56-57.6 1.2-106 39-122.6 91 20.2-3 38.4-3 59.2 2.4-60 12.2-105 65-105 128.8v1.6c17.4-9.8 37.8-15.8 59.2-16.6-35.411 23.8-58.4 63.708-58.4 108.986 0 0.075 0 0.151 0 0.226v-0.012c0 24.4 6.4 46.8 17.8 66.2 64.6-79.6 161.6-131.6 270.4-137.2-18.6 89 48 161.2 128 161.2 37.8 0 71.8-15.8 95.8-41.4 29.6 5.6 58 16.6 83.2 31.6-9.8-30.4-30.4-56-57.6-72.2 26.4 2.8 52 10.2 75.6 20.4-17.8-26.2-40.2-49.4-65.8-68z" />
<glyph unicode="&#xe92c;" glyph-name="twitch" data-tags="twitch" horiz-adv-x="896" d="M80.2 896l-60.2-153.8v-628.6h214v-113.6h120.4l113.6 113.6h174l234 234v548.4h-795.8zM795.8 387.8l-133.8-133.8h-214l-113.6-113.6v113.6h-180.6v561.8h642v-428zM662 662v-233.8h-80.2v233.8h80.2zM448 662v-233.8h-80.2v233.8h80.2z" />
<glyph unicode="&#xe92d;" glyph-name="tumblr" data-tags="tumblr" horiz-adv-x="640" d="M619.6-0.6c-27.2-29-100-63.4-194.8-63.4-241.6 0-294 177.6-294 281.2v288h-95c-11 0-20 9-20 20v136c0 14.4 9 27.2 22.6 32 124 43.6 163 152 168.6 234.2 1.6 22 13 32.6 32.2 32.6h141.8c11 0 20-9 20-20v-230.4h166c11 0 20-8.8 20-19.8v-163.4c0-11-9-20-20-20h-166.8v-266.4c0-68.4 47.4-107.2 136-71.6 9.6 3.8 18 6.4 25.4 4.4 7-1.8 11.6-6.8 14.8-15.8l44-128.6c3.6-10 6.6-21.2-0.8-29z" />
<glyph unicode="&#xe92e;" glyph-name="tumblr-square" data-tags="tumblr-square" horiz-adv-x="896" d="M800 896h-704c-53 0-96-43-96-96v-704c0-53 43-96 96-96h704c53 0 96 43 96 96v704c0 53-43 96-96 96zM635.4 167.6c-17-18.2-62.4-39.6-121.8-39.6-151 0-183.8 111-183.8 175.8v180h-59.4c-6.8 0-12.4 5.6-12.4 12.4v85c0 9 5.6 17 14.2 20 77.6 27.4 101.8 95 105.4 146.4 1 13.8 8.2 20.4 20 20.4h88.6c6.8 0 12.4-5.6 12.4-12.4v-144h103.8c6.8 0 12.4-5.6 12.4-12.4v-102.2c0-6.8-5.6-12.4-12.4-12.4h-104.2v-166.6c0-42.8 29.6-67 85-44.8 6 2.4 11.2 4 16 2.8 4.4-1 7.2-4.2 9.2-9.8l27.6-80.4c2-6.4 4-13.4-0.6-18.2z" />
<glyph unicode="&#xe92f;" glyph-name="tripadvisor" data-tags="tripadvisor" horiz-adv-x="1152" d="M332.8 398.958c0-26.472-21.46-47.932-47.932-47.932s-47.932 21.46-47.932 47.932 21.46 47.932 47.932 47.932 47.932-21.458 47.932-47.932zM862.724 446.87c-26.46 0-47.912-21.45-47.912-47.912 0-26.46 21.45-47.912 47.912-47.912 26.46 0 47.912 21.45 47.912 47.912-0.002 26.462-21.452 47.912-47.912 47.912zM1041.5 167.89c-125.334-98.208-306.552-76.218-404.758 49.118l-61.958-92.65-61.366 91.878c-96.554-120.78-271.244-143.782-395.77-52.11-128.116 94.316-155.518 274.632-61.202 402.748-13.107 43.63-32.379 81.635-57.172 115.327l0.726-1.033 180.572 0.1c107.571 67.919 238.468 108.224 378.778 108.224 5.398 0 10.783-0.060 16.153-0.178l-0.8 0.014c3.717 0.071 8.099 0.111 12.491 0.111 137.824 0 266.356-39.788 374.734-108.505l-2.863 1.696 192.436-0.148c-24.297-32.925-43.674-71.282-56.030-112.669l-0.674-2.629c93.586-125.494 69.928-302.74-53.296-399.294zM518.732 396.478c-0.014 127.114-103.070 230.15-230.184 230.136s-230.148-103.070-230.136-230.184c0.014-127.114 103.070-230.15 230.184-230.136 127.026 0.15 229.968 103.078 230.136 230.104v0.080zM575.914 417.388c10.866 146.88 131.020 261.768 278.24 266.044-79.326 35.204-171.863 55.702-269.187 55.702-3.61 0-7.213-0.028-10.81-0.084l0.543 0.007c-2.054 0.021-4.481 0.034-6.91 0.034-98.663 0-192.642-20.050-278.086-56.299l4.668 1.759c148.688-3.164 270.598-118.848 281.542-267.162zM1079.326 474.922c-43.984 119.268-176.324 180.296-295.59 136.314-119.268-43.984-180.296-176.324-136.314-295.59v-0.064c44.076-119.214 176.396-180.182 295.654-136.226 119.23 44.008 180.226 176.324 136.25 295.566zM427.248 398.972v-0.23c-0.114-78.656-63.972-142.326-142.628-142.212s-142.326 63.972-142.212 142.628c0.114 78.656 63.972 142.326 142.628 142.212 78.518-0.232 142.084-63.88 142.212-142.398zM378.224 398.972v0.168c-0.102 51.568-41.988 93.29-93.556 93.188s-93.29-41.988-93.188-93.554c0.102-51.568 41.988-93.29 93.554-93.188 51.452 0.226 93.074 41.936 93.19 93.386zM1005.070 398.972v-0.096c-0.040-78.656-63.836-142.388-142.494-142.346s-142.388 63.836-142.346 142.494c0.040 78.656 63.836 142.388 142.494 142.346 78.58-0.132 142.242-63.818 142.346-142.398zM956.062 398.988c-0.018 51.568-41.836 93.358-93.404 93.34s-93.358-41.836-93.34-93.404c0.018-51.568 41.836-93.356 93.404-93.34 51.53 0.092 93.272 41.856 93.34 93.386v0.018z" />
<glyph unicode="&#xe930;" glyph-name="trello" data-tags="trello" horiz-adv-x="896" d="M784 896h-672c-61.8 0-112-50.2-112-112v-672c0-61.8 50.2-112 112-112h672c61.8 0 112 50.2 112 112v672c0 61.8-50.2 112-112 112zM389.8 217.2c0-29.6-24-53.8-53.8-53.8h-165.8c-29.6 0-53.8 24-53.8 53.8v508.6c0 29.6 24 53.8 53.8 53.8h165.8c29.6 0 53.8-24 53.8-53.8v-508.6zM779.6 441.2c0-29.6-24-53.8-53.8-53.8h-165.8c-29.6 0-53.8 24-53.8 53.8v284.6c0 29.6 24 53.8 53.8 53.8h165.8c29.6 0 53.8-24 53.8-53.8v-284.6z" />
<glyph unicode="&#xe931;" glyph-name="themeisle" data-tags="themeisle" d="M416 783.428c0 20 12.572 43.428 35.43 43.428 22.284 0 35.428-23.428 35.428-43.428 0-20.57-13.144-43.428-35.428-43.428-22.858 0-35.43 22.858-35.43 43.428zM1024 463.428c0-72.002-22.858-204.572-72.572-259.428-45.716-49.716-174.856-122.286-241.714-141.144l-2.286-0.572v-65.142c0-32.572-25.144-61.142-58.286-61.142-20 0-38.858 11.428-49.144 28.572-10.854-17.144-29.712-28.572-49.712-28.572s-38.858 11.428-49.716 28.572c-10.284-17.144-29.142-28.572-49.14-28.572-20.572 0-38.858 11.428-49.716 28.572-10.286-17.144-29.142-28.572-49.142-28.572-37.714 0-58.858 31.428-58.858 65.714-32.572-24.57-71.43-38.856-113.142-38.856-44 0-86.858 16.57-120.572 45.714 20.57 0.572 41.142 4.572 60.57 11.428-41.714 11.428-78.856 37.714-104 72.572 42.74-9.29 92.418-3.346 134.286 22.286-44 44-113.142 117.714-137.144 174.856-11.426 26.858-13.712 62.858-13.712 91.428 0 99.428 40.572 320 172.572 320 21.142 0 37.714-9.716 46.286-29.714 7.959 11.583 15.842 21.644 24.292 31.192l-0.292-0.336c4 5.144 11.428 10.858 14.286 16.572 15.998 25.142 23.428 42.284 43.428 68 64.57 82.288 163.428 138.858 269.714 138.858 12 0 24-0.57 35.428-2.286 21.714 23.43 52 36.572 83.43 36.572 29.142 0 59.428-12 80-32.572 1.714-1.716 2.856-4.572 2.856-6.856 0-7.428-20.57-26.858-25.714-32.572 8.572-2.858 31.428-13.716 31.428-24 0-5.714-5.714-10.286-9.142-14.286 62.858-55.428 98.858-134.286 112.572-216 8.572 10.286 20.57 17.144 34.286 17.144 21.142 0 41.714-14.288 57.142-28.002 41.714-37.142 51.428-106.284 51.428-159.428zM376 781.144c0-36.572 25.142-74.286 64.572-74.286 39.428 0 64.57 37.714 64.57 74.286 0 36-25.142 73.714-64.57 73.714-39.43 0-64.572-37.716-64.572-73.714zM475.428 572c0 39.428 7.428 78.286 17.142 116.572-104.078-159.068-27.062-369.142 137.716-369.142 42.856 0 85.142 15.428 120 40 4 14.858 7.428 29.714 7.428 45.144 0 28.572-12.572 42.856-41.144 42.856-9.142 0-18.286-1.714-26.858-3.428-126.686-25.336-214.284-7.338-214.284 127.998zM393.144 62.284c0 22.286-17.716 41.714-40.572 41.714-22.858 0-40-19.43-40-41.714v-65.142c0-22.286 17.142-42.284 40-42.284 22.856 0 40.572 19.43 40.572 42.284v65.142zM491.43 62.284c0 22.286-17.144 41.714-40 41.714-22.858 0-40.572-19.43-40.572-41.714v-65.142c0-22.286 17.714-42.284 40.572-42.284 22.856 0 40 20 40 42.284v65.142zM590.856 62.284c0 22.286-17.714 41.714-40.57 41.714-22.858 0-40.572-19.43-40.572-41.714v-65.142c0-22.286 17.714-42.284 40.572-42.284 22.856 0 40.57 19.43 40.57 42.284v65.142zM690.286 62.284c0 22.286-17.714 41.714-40.572 41.714-22.856 0-40.572-19.43-40.572-41.714v-65.142c0-22.286 17.716-42.284 40.572-42.284 22.858 0 40.572 20 40.572 42.284v65.142zM843.428 388c-61.714-118.284-180.57-205.144-317.142-205.144-193.142 0-321.142 169.144-321.142 353.144 0 33.714 4 66.858 12 99.428-40-67.43-59.428-145.144-59.428-222.858 0-120.572 49.714-243.43 142.858-321.714 10.286 19.428 29.714 32.572 52 32.572 20 0 38.856-11.428 49.142-28.572 10.858 17.142 29.142 28.572 49.716 28.572 20 0 38.856-11.428 49.142-28.572 10.858 17.142 29.714 28.572 49.716 28.572 20 0 38.856-11.428 49.714-28.572 10.286 17.142 29.142 28.572 49.144 28.572 21.714 0 41.714-13.144 51.428-32 86.854 72.572 137.138 184 142.852 296.572zM864.572 587.428c0 107.428-69.142 211.428-185.144 211.428-60.57 0-117.142-30.286-157.714-73.714-39.99-132.766-54.894-273.142 82.858-273.142 57.61 0 194.714 57.076 168.572-73.714 57.714 52 91.428 131.428 91.428 209.142z" />
<glyph unicode="&#xe932;" glyph-name="tencent-weibo" data-tags="tencent-weibo" horiz-adv-x="768" d="M144.6-31.6c2.8-39.8-55.2-44.4-59.4-5.8-23.2 259.8 62.2 479 202.8 626.4-31.2 68 18.4 154.2 101.2 154.2 60.6 0 110.2-49.2 110.2-110.2 0-88-99-141.6-173.8-90.2-131.4-142.6-202.8-339.6-181-574.4zM384 959.8c-251.8 0-408.6-268.4-296.6-484.6 17.4-34.8 70.6-9 52.6 26.8-92.6 185.2 42 398.4 244 398.4 150.8 0 273.8-122.8 273.8-273.8 0-181.6-173.8-307.8-335.4-266.2-38.2 8.2-51.2-48.8-13.2-58.2 221.4-46.4 408 120 408 324.6 0 183.8-149.2 333-333.2 333z" />
<glyph unicode="&#xe933;" glyph-name="telegram" data-tags="telegram" horiz-adv-x="992" d="M496 944c-274 0-496-222-496-496s222-496 496-496 496 222 496 496-222 496-496 496zM739.6 604.2l-81.4-383.6c-6-27.2-22.2-33.8-44.8-21l-124 91.4-59.8-57.6c-6.6-6.6-12.2-12.2-25-12.2l8.8 126.2 229.8 207.6c10 8.8-2.2 13.8-15.4 5l-284-178.8-122.4 38.2c-26.6 8.4-27.2 26.6 5.6 39.4l478.2 184.4c22.2 8 41.6-5.4 34.4-39z" />
<glyph unicode="&#xe934;" glyph-name="telegram-plane" data-tags="telegram-plane" horiz-adv-x="896" d="M893.4 762.8l-135.2-637.6c-10.2-45-36.8-56.2-74.6-35l-206 151.8-99.4-95.6c-11-11-20.2-20.2-41.4-20.2l14.8 209.8 381.8 345c16.6 14.8-3.6 23-25.8 8.2l-472-297.2-203.2 63.6c-44.2 13.8-45 44.2 9.2 65.4l794.8 306.2c36.8 13.8 69-8.2 57-64.4z" />
<glyph unicode="&#xe935;" glyph-name="supple" data-tags="supple" horiz-adv-x="1280" d="M1280 435c0-128.2-218-232.2-487-232.2-49.6 0-97.2 3.6-142.2 10 15.4-0.8 31-1.2 46.8-1.2 269 0 487 113.8 487 254.2 0 58.8-38.2 112.8-102.4 156 120-42.2 197.8-110.2 197.8-186.8zM95.4 504.2c-0.2 140.4 217.6 254.6 486.6 255.2 15.8 0 31.2-0.4 46.6-1-45 6.4-92.6 9.8-142 9.8-269-0.8-486.8-105.2-486.6-233.4 0.2-76.6 78.2-144.6 198.6-186.6-64.6 43-103 97.2-103.2 156zM215.8 424.4s21-26.4 58.6-26.4c35.8 0 56.8 23 56.8 50.2 0 56-80.4 50.2-80.4 79.4 0 10.8 10.6 18.2 25 18.2 11.4 0 22.6-5.2 22.6-13.2v-7.8h28.4v15.8c0 24.2-30.8 33.6-50.8 33.6-33 0-57-20.4-57-48.2 0-53.2 80.4-50.8 80.4-79.8 0-13.2-11.6-20.2-24.6-20.2-23.8 0-41.4 20.2-41.4 20.2l-17.6-21.8zM457.4 571.6v-108.8c0-22.6-14.2-35.6-35.6-35.6s-35.6 13-35.6 35.4v109h-31.6v-110c0-37.8 26.8-63.8 67.4-63.8 40.2 0 66.8 26 66.8 63.8v110h-31.4zM526.2 400.8h31.6v59h31c32 0 54.4 23 54.4 56.2s-22.4 55.6-54.4 55.6h-78.2v-26.8h15.6v-144zM557.8 486.8v58.2h25.8c17.4 0 27.4-11.4 27.4-28.8 0-17.8-10.2-29.4-28-29.4h-25.2zM671.8 400.8h31.6v59h31c32 0 54.4 23 54.4 56.2s-22.4 55.6-54.4 55.6h-78.2v-26.8h15.6v-144zM703.2 486.8v58.2h25.8c17.4 0 27.4-11.4 27.4-28.8 0-17.8-10-29.4-28-29.4h-25.2zM817.4 417.2c0-11.6 4.8-16.4 16.4-16.4h75.2c11.6 0 16.4 4.8 16.4 16.4v26h-28.6v-10.4c0-3.4-2-5.2-5.2-5.2h-37.2c-3.4 0-5.2 2-5.2 5.2v122.4c0 11.4-4.8 16.4-16.4 16.4h-30.8v-26.8h10.4c3.4 0 5.2-2 5.2-5.2v-122.4zM944.2 417.2c0-11.6 4.8-16.4 16.4-16.4h77.4c11.4 0 16.4 4.8 16.4 16.4v26h-28.6v-10.4c0-3.4-2-5.2-5.2-5.2h-39.4c-3.4 0-5.2 2-5.2 5.2v40.6h55.4v26.8h-55.4v44.8h38.4c3.4 0 5.2-2 5.2-5.2v-10.4h28.4v26c0 11.4-5 16.4-16.4 16.4h-103.2v-26.8h15.6v-127.8zM1062 569.2v-11.8h3.2v11.8h5.4v2.4h-14v-2.4h5.4zM1073.4 571.6v-14.2h3v11.4l4.6-11.4h2.6l4.6 11.4v-11.4h3v14.2h-4.6l-4.2-10.2-4.2 10.2h-4.8z" />
<glyph unicode="&#xe936;" glyph-name="superpowers" data-tags="superpowers" horiz-adv-x="896" d="M896 896c-166.6-22-333.6-44-500-66-184-25-326.6-173.4-338-360-6.6-111 36-219 115.6-296.4l-173.6-173.6c166.6 22 333 44 499.6 66 183.6 25 326.6 173.6 337.4 359.6 7 111-36 219-115.4 296.4l174.4 174zM736.6 431.4c-8.4-159-148-278.4-305.6-269-159 9.4-281.4 142-272.6 302 9 158.4 148.6 278.6 306 269 158.6-9.4 281-142 272.2-302z" />
<glyph unicode="&#xe937;" glyph-name="stumbleupon" data-tags="stumbleupon" d="M1005.8 428v-139.4c0-124.2-100.6-224.8-224.8-224.8-123.6 0-224.8 99.6-224.8 222.6v140.4l68.6-32 102.2 30.4v-141.2c0-29.4 24-53 53.4-53s53.6 23.6 53.6 53v144h171.8zM556.4 544.4l68.6-32 102.2 30.4v71.2c0 121-102.2 218-224.2 218-121.6 0-224.2-96.4-224.2-216.4v-324.8c0-29.8-24-53.4-53.4-53.4s-53.4 23.6-53.4 53.4v137.2h-172v-139.4c0-124 100.6-224.6 224.8-224.6 123.2 0 224.8 99 224.8 221.6v320.6c0 29.4 24 53.4 53.4 53.4s53.4-24 53.4-53.4v-61.8z" />
<glyph unicode="&#xe938;" glyph-name="stumbleupon-circle" data-tags="stumbleupon-circle" horiz-adv-x="992" d="M512 944c-274 0-496-222-496-496s222-496 496-496 496 222 496 496-222 496-496 496zM512 589c-19.6 0-35.6-16-35.6-35.6v-213.8c0-81.8-67.8-147.8-149.8-147.8-82.8 0-149.8 67-149.8 149.8v93h114.6v-91.6c0-20 16-35.6 35.6-35.6s35.6 15.8 35.6 35.6v216.8c0 80 68.4 144.2 149.4 144.2 81.4 0 149.4-64.6 149.4-145.2v-47.4l-68.2-20.2-45.8 21.4v41.2c0.2 19.2-15.8 35.2-35.4 35.2zM847.2 341.8c0-82.8-67-149.8-149.8-149.8-82.4 0-149.8 66.4-149.8 148.4v93.6l45.8-21.4 68.2 20.2v-94.2c0-19.6 16-35.2 35.6-35.2s35.6 15.8 35.6 35.2v96h114.6c-0.2-91.8-0.2-92.8-0.2-92.8z" />
<glyph unicode="&#xe939;" glyph-name="stripe" data-tags="stripe" horiz-adv-x="1280" d="M1280 436.8c0 91-44 162.8-128.4 162.8s-135.8-71.8-135.8-162.2c0-107 60.6-156.4 147-156.4 42.4 0 74.2 9.6 98.4 23v66.8c-24.2-12.2-52-19.6-87.2-19.6-34.6 0-65 12.2-69 53.8h173.8c0.4 4.6 1.2 23.2 1.2 31.8zM1104.2 470.4c0 40 24.6 56.8 46.8 56.8 21.8 0 45-16.8 45-56.8h-91.8zM878.4 599.6c-34.8 0-57.2-16.4-69.6-27.8l-4.6 22h-78.2v-409.6l88.8 18.8 0.2 100.4c12.8-9.4 31.8-22.4 62.8-22.4 63.6 0 121.6 46.4 121.6 159.2 0.2 103.2-58.6 159.4-121 159.4zM857.2 354.6c-20.8 0-33.2 7.6-41.8 16.8l-0.6 132c9.2 10.2 22 17.6 42.4 17.6 32.4 0 54.8-36.4 54.8-82.8 0.2-47.8-21.8-83.6-54.8-83.6zM692.8 712v-72.4l-89.2-19v72.4l89.2 19zM603.8 593.6h89.2v-306.4h-89.2v306.4zM508.2 567.4c20.8 38.2 62.2 30.4 74.2 26.2v-81.6c-11.4 3.6-46.8 9-67.8-18.6v-206.2h-88.6v306.4h76.8l5.4-26.2zM330.2 593.6h67.4v-75.6h-67.4v-126.4c0-52.4 56-36 67.4-31.4v-67.6c-11.8-6.4-33.2-11.8-62.4-11.8-52.6 0-92.2 34-92.2 86.6l0.4 284.8 86.6 18.4 0.2-77zM89.8 503.4c0-40 135.8-21 135.8-126.8 0-64-50.8-95.6-124.6-95.6-30.6 0-64 6-97 20.2v80c29.8-16.2 67.8-28.4 97.2-28.4 19.8 0 34 5.4 34 21.8 0 42.4-135 26.4-135 124.8 0 62.8 48 100.4 120 100.4 29.4 0 58.8-4.6 88.2-16.2v-83.6c-27 14.6-61.4 22.8-88.4 22.8-18.6-0.2-30.2-5.6-30.2-19.4z" />
<glyph unicode="&#xe93a;" glyph-name="studiovinari" data-tags="studiovinari" d="M960.6 584.6l8.4-56v-56l-50.2-88.2-79.6-156.8-112.2-135-158.2-75.6-35.4-49-15.4-24-19.2-8s34.6 127.2 38.8 127.2c4.2 0 40.6-1.4 40.6-1.4l133.4 77.2-185-52.2-111.8-73.6-45.6-56-13.2-2.8 41.6 147.2 13.8 11 41.4-25.8 176.6 90.4 113.6 103 29.6 136.8-250.8-46.6 30.4 36.4-346.8 106.6 163.8 21-332 245.8 229.8-36.2-202.6 216 505.8-253.2-63 76 248.8-148.8-286.6 198 37.4-76.8-99.2 36.2-91 168.6 389.2-244-85.8 111.6 216-192.8 24 17.8-42 32.8 8.4 75.6 75.6 20.8 58.4-49.4 23-8.4-14-12.4 17-24-26.2-14.8-20.6-40.4 21-47.8z" />
<glyph unicode="&#xe93b;" glyph-name="stripe-s" data-tags="stripe-s" horiz-adv-x="725" d="M288.6 650.8c0 44.6 37.2 61.8 96.8 61.8 86.8 0 197-26.6 283.8-73.4v268.6c-94.6 37.8-189 52.2-283.6 52.2-231.4 0-385.6-120.8-385.6-322.8 0-315.8 433.6-264.6 433.6-400.8 0-52.8-45.8-69.8-109.4-69.8-94.4 0-216.4 39-312.2 91v-257c106-45.6 213.6-64.8 312-64.8 237.2 0 400.6 102 400.6 307.2 0 340.4-436 279.4-436 407.8z" />
<glyph unicode="&#xe93c;" glyph-name="strava" data-tags="strava" horiz-adv-x="738" d="M603.2 376l-87.8-176.4-89.2 176.4h-135.2l224.4-440 223 440h-135.2zM302.8 960l-302.8-584h178.4l124.4 232.2 123.4-232.2h177l-300.4 584z" />
<glyph unicode="&#xe93d;" glyph-name="sticker-mule" data-tags="sticker-mule" horiz-adv-x="1152" d="M706.2-59.6c-11.8-5.8-64.2-6.4-73 1-8.2 6-4.4 23.8-3 30 4.4 30-5 15.8-19.6 23-6.2 3-8.2 11-9.2 20-1 3-2 5-3 7-3.4 21.4 13.6 67.2 16.4 86.8 9.8 47.4-1.4 74.4 3 93.8 7.4 32.4 8.2 7 8.2 59.8-2.8 51.8 6.6 73.8 1 77.8-29.6 0-128.6-21.4-224.4-4-92.2 17.8-118.8 58-130.8 61.8-20.6 9-46.4-1-54.6-14-0.2-0.2-70-141.2-79.2-175.6-12.4-41-1-94.8 8.2-133.6 0-0.2 9-29.2 20.6-39 4.2-3 10.2-5 14.4-9 5.6-5.4 18.8-30.4 19.6-32 5.2-9 7.2-16-3-21-7.2-4-18.6-5-28.8-5-5.2-1-3-7-6.2-10-5.8-5.6-41.4-12.2-59.8-5-5.2 2-11.4 6-12.4 10-3 8 4.2 18-2 25-9 5.8-26.2 4-34 24-4.4 10.8-5.2 15.2-5.2 98.8 0 19.4-11.8 77.4-16.4 93.8-3 11-3 23 0 32 0.6 1.8 8.2 9.2 8.2 26-2 3-9.2 1-10.2 3-20.8 161.2-11.8 158-15.4 196.6-3 32-21.8 87.8-13.4 128.6 1 4.8 6.8 42 48.4 77.8 62 53.4 96.8 76.6 318 23 2.2-0.8 132.6-42.2 221.4 18 31 22.6 57.6 22.6 71 32 0.2 0.2 123.4 104.2 174 130.6 94.4 58.8 139.8 33.4 150.2 36 9.4 2 26.8 51.6 34 51.6 11 0 3.2-40.4 7.2-51.8 1-4 7.2-10 12.4-10 4.6 0 3.4 1.6 20.6 10 16.8 10.8 29.8 35.2 41.2 34 23.4-3.2-38-83.2-38-93.8 0-4 0.4-1.6 9.2-19 5.2-11 9.2-27 12.4-40 16.6-59.4 11.4-29.2 26.8-73.8 40.4-100.2 41.2-90.4 41.2-105.8 0-15-8.2-22-14.4-33-3-6-9.2-15-14.4-16-5.4-1.4 14 3-26.8-5-14.4-2-26.8 9-29.8 19-3.2 9.4 5.6 20.2-23.6 45.8-20.6 20-42.2 22.6-63.8 34-19.6 11.4-23.8-2-36-16-36-45.8-68-93.8-104-139.6-23.6-30-48.4-60.8-67-94.8-7.8-13.6-19-56.2-20.6-59.8-12.4-35.4-11-51.6-33-136.6-6.2-20-11.4-42.8-17.4-64.8-4.4-13.6-14.8-98.6-1-118.8 4.2-7 17.4-9 22.6-16 0.2-0.2 19.2-36.4 18.6-40 0-12.2-18.8-11.2-22.6-13-9.6-5.8-7.6-11.8-12.8-14.8z" />
<glyph unicode="&#xe93e;" glyph-name="steam" data-tags="steam" horiz-adv-x="992" d="M992 448c0-274-222.4-496-496.8-496-227.6 0-419.2 152.6-478 360.8l190.4-78.6c12.8-64.2 69.8-112.8 137.8-112.8 78.4 0 143.8 64.8 140.4 147l169 120.4c104.2-2.6 191.6 81.8 191.6 187 0 103.2-84 187-187.4 187s-187.4-84-187.4-187v-2.4l-118.4-171.4c-31 1.8-61.4-6.8-87-24.2l-266.2 110c20.4 255.4 234.2 456.2 495.2 456.2 274.4 0 496.8-222 496.8-496zM311.4 191.4l-61 25.2c11.393-23.29 30.397-41.387 53.711-51.338l0.689-0.262c53.8-22.4 115.6 3.2 138 56.8 10.8 26 11 54.6 0.2 80.6s-31 46.4-57 57.2c-25.8 10.8-53.4 10.4-77.8 1.2l63-26c39.6-16.4 58.4-61.8 41.8-101.4-16.6-39.8-62-58.4-101.6-42zM659 451.2c-68.8 0-124.8 56-124.8 124.6s56 124.6 124.8 124.6 124.8-56 124.8-124.6-55.8-124.6-124.8-124.6zM659.2 482.4c51.8 0 93.8 42 93.8 93.6 0 51.8-42 93.6-93.8 93.6s-93.8-42-93.8-93.6c0.2-51.6 42.2-93.6 93.8-93.6z" />
<glyph unicode="&#xe93f;" glyph-name="steam-symbol" data-tags="steam-symbol" horiz-adv-x="896" d="M791 605c0-67.6-55-122-122-122-67.6 0-122 54.6-122 122s54.6 122 122 122c67 0 122-54.4 122-122zM896 604.6c0-126-102-227.6-227.4-227.6l-218.6-159.6c-8-86-81-153.6-169-153.6-81 0-149.4 57.6-166 134l-115 46.2v214.6l194.4-78.6c30.2 18.4 64.4 26.6 104 23l142 203.4c1 124.6 103 225.6 228 225.6 125.6 0 227.6-102 227.6-227.4zM406 234c0 69.4-55.6 125-125 125-9 0-18-1-27-3l52-21c51-20.4 76-78 55.4-129-20.4-51-78.4-76-129.4-55-20.4 8-41 16.6-61.4 24.4 21-39.4 62.4-66.4 110.4-66.4 69.4 0 125 55.6 125 125zM821 604.6c0 84-68.6 152.4-152.4 152.4-84.6 0-153-68.4-153-152.4 0-84.4 68.6-152.4 153-152.4 83.8-0.2 152.4 67.8 152.4 152.4z" />
<glyph unicode="&#xe940;" glyph-name="steam-square" data-tags="steam-square" horiz-adv-x="896" d="M370.4 247c15.4 37-2 79.4-39.2 94.8l-59 24.4c22.8 8.6 48.6 9 72.8-1 24.4-10.2 43.2-29.2 53.4-53.4 10-24.4 10-51.2-0.2-75.4-21-50.2-78.8-74-129.2-53-23.2 9.6-40.8 27.2-50.8 48.4l57-23.6c37.2-15.6 79.8 1.8 95.2 38.8zM800 896h-704c-53 0-96-43-96-96v-321.4l233.2-96.2c24 16.4 52.4 24.2 81.4 22.6l110.8 160.4v2.2c0 96.4 78.6 175 175.2 175s175.2-78.6 175.2-175c0-98.4-81.8-177.4-179.2-175l-158-112.6c3.2-77-58.2-137.6-131.4-137.6-63.6 0-117 45.4-129 105.4l-178.2 73.8v-225.6c0-53 43-96 96-96h704c53 0 96 43 96 96v704c0 53-43 96-96 96zM600.6 451c-64.4 0-116.8 52.2-116.8 116.6s52.4 116.6 116.8 116.6 116.8-52.4 116.8-116.6-52.4-116.6-116.8-116.6zM600.8 480.2c48.4 0 87.8 39.2 87.8 87.6s-39.2 87.6-87.8 87.6c-48.4 0-87.8-39.2-87.8-87.6s39.4-87.6 87.8-87.6z" />
<glyph unicode="&#xe941;" glyph-name="staylinked" data-tags="staylinked" horiz-adv-x="880" d="M403.2 705.2c8.2 6.4 20.6 6 27.6-1l334.6-329.2 88.6-82.6c7.4-7 6.6-18-1.4-24.4l-396-327.8c-19.8-15.2-34.6-1.6-34.6-1.6l-417.4 392.2c-7 7-6 18 2.4 24.4l91.6 69.8c8.4 6.4 20.8 6 27.8-1l303.8-295c7.4-7 20-7.4 28.4-0.8l186.4 148c8.2 6.4 9 17.4 1.8 24.4l-168 162.6c-7.2 7-19.8 7.4-28 1l-0.2-0.2c-8.2-6.4-20.8-6-28 1l-136.2 128.6c-7 7-6.2 18 2.2 24.4l114.6 87.2zM432.8 190.6c7.4-7 20.2-7.4 28.6-0.8l100.4 77.6-0.6 0.6 15.4 12c8.4 6.4 9.2 17.4 1.8 24.4l-114.2 108.8c-7.2 7-20 7.4-28.4 1l-0.2-0.2c-8.4-6.4-21-6.2-28.4 0.8l-189.2 183.6c-7.2 7-6.2 17.8 2.2 24.4l184.4 143c8.2 6.4 20.6 6 27.8-1l320.8-318c7.4-7 20-7.4 28.2-1l91.6 71.6c8.2 6.4 8.8 17.4 1.4 24.4l-421 413.2c-3 2.4-16 11-32.6-2.2l-413.6-324.2c-8.4-6.4-9.6-17.4-2.4-24.4l84.6-83.4z" />
<glyph unicode="&#xe942;" glyph-name="stack-overflow" data-tags="stack-overflow" horiz-adv-x="768" d="M587.4 360l-362.4 169 33.4 73 362.6-169.4-33.6-72.6zM683.4 512l-307 256.6-51-61.6 307-256.6 51 61.6zM762.6 575.4l-238.6 320.6-64-48 238.6-320.6 64 48zM581.4 338l-391.4 82.6-16.4-78.6 391.4-82 16.4 78zM644.6 80h-559.2v240h-80v-320h719v320h-80v-240zM565 240h-400v-79.4h400v79.4z" />
<glyph unicode="&#xe943;" glyph-name="stack-exchange" data-tags="stack-exchange" horiz-adv-x="896" d="M35.4 295.4h825.4v-44c0-75.4-58.6-136-130.6-136h-38l-173.6-179.4v179.4h-352.6c-72 0-130.6 60.6-130.6 136v44zM35.4 342.6h825.4v170h-825.4v-170zM35.4 561.4h825.4v170h-825.4v-170zM730 960h-564c-72 0-130.6-60.6-130.6-135.4v-44.6h825.4v44.6c-0.2 74.8-58.8 135.4-130.8 135.4z" />
<glyph unicode="&#xe944;" glyph-name="spotify" data-tags="spotify" horiz-adv-x="992" d="M496 944c-273.8 0-496-222.2-496-496s222.2-496 496-496 496 222.2 496 496-222.2 496-496 496zM697.4 214.2c-8.4 0-13.6 2.6-21.4 7.2-124.8 75.2-270 78.4-413.4 49-7.8-2-18-5.2-23.8-5.2-19.4 0-31.6 15.4-31.6 31.6 0 20.6 12.2 30.4 27.2 33.6 163.8 36.2 331.2 33 474-52.4 12.2-7.8 19.4-14.8 19.4-33s-14.2-30.8-30.4-30.8zM751.2 345.4c-10.4 0-17.4 4.6-24.6 8.4-125 74-311.4 103.8-477.2 58.8-9.6-2.6-14.8-5.2-23.8-5.2-21.4 0-38.8 17.4-38.8 38.8s10.4 35.6 31 41.4c55.6 15.6 112.4 27.2 195.6 27.2 129.8 0 255.2-32.2 354-91 16.2-9.6 22.6-22 22.6-39.4-0.2-21.6-17-39-38.8-39zM813.2 497.8c-10.4 0-16.8 2.6-25.8 7.8-142.4 85-397 105.4-561.8 59.4-7.2-2-16.2-5.2-25.8-5.2-26.4 0-46.6 20.6-46.6 47.2 0 27.2 16.8 42.6 34.8 47.8 70.4 20.6 149.2 30.4 235 30.4 146 0 299-30.4 410.8-95.6 15.6-9 25.8-21.4 25.8-45.2 0-27.2-22-46.6-46.4-46.6z" />
<glyph unicode="&#xe945;" glyph-name="speakap" data-tags="speakap" horiz-adv-x="896" d="M704 896h-512c-105.6 0-192-86.4-192-192v-512c0-105.6 86.4-192 192-192h512c105.6 0 192 86.4 192 192v512c0 105.6-86.4 192-192 192zM442 194.2c-79.2 0-163.8 35.6-163.8 107.4v54.4h79.8v-35.6c0-30.2 39-49 83.8-49 48.4 0 82.6 20.8 82.6 59 0 47.6-54.4 63.8-109.4 85.2-63.8 24.8-126.2 52.4-126.2 138.2 0 96 77.2 132.8 159.8 132.8 75.2 0 151-28.2 151-83.8v-62.4h-79.8v32.2c0 24.2-35.6 37-71.2 37-39 0-71.2-16.2-71.2-52.4 0-44.2 45-58.4 94-77.8 71.8-24.8 142.2-54.4 142.2-143 0.2-97.2-81.6-142.2-171.6-142.2z" />
<glyph unicode="&#xe946;" glyph-name="soundcloud" data-tags="soundcloud" horiz-adv-x="1280" d="M222.8 447.4l11.6-130-11.6-136.6c-0.6-5-4.4-8.8-8.8-8.8s-8.4 3.8-8.4 8.8l-11.2 136.6 11.2 130c0 4.4 3.8 8.4 8.4 8.4 4.4 0 8.2-4 8.8-8.4zM265.6 538.6c-5.6 0-9.4-4.4-10-10l-10-211.2 10-136.6c0.6-5.6 4.4-10 10-10 5 0 9.4 4.4 9.4 10l11.6 136.6-11.6 211.2c0 5.6-4.4 10-9.4 10zM316.6 586.8c-6.2 0-10.6-4.4-11.2-10.6l-8.8-260 8.8-135.6c0.6-6.2 5-10.6 11.2-10.6 5.6 0 10.6 4.4 10.6 10.6l10.6 135.6-10.6 260c0 6.2-5 10.6-10.6 10.6zM14.4 393.6c-2.8 0-4.4-2.2-5-5l-9.4-71.2 9.4-70c0.6-2.8 2.2-5 5-5s4.4 2.2 5 5l11.2 70-11.2 71.2c-0.6 2.8-2.2 5-5 5zM61.6 437.4c-2.8 0-5-2.2-5-5l-12.8-115 12.8-112.2c0-3.4 2.2-5.6 5-5.6s5 2.2 5.6 5l14.4 112.8-14.4 115c-0.6 2.8-2.8 5-5.6 5zM112.2 460.2c-3.4 0-6.2-2.8-6.6-6.6l-11.6-136.2 11.6-131.6c0.6-3.4 3.4-6.2 6.6-6.2 3.4 0 6.2 2.8 6.2 6.2l13.8 131.6-13.8 136.2c0 3.8-2.8 6.6-6.2 6.6zM162.8 464.6c-3.8 0-7.2-2.8-7.2-7.2l-11.6-140 11.6-135.6c0-4.4 3.4-7.2 7.2-7.2s7.2 2.8 7.8 7.2l12.8 135.6-12.8 140c-0.6 4.4-4 7.2-7.8 7.2zM645.6 686.4c-2.2 1.6-5.6 2.8-8.4 2.8-4.4 0-8.4-1.6-11.2-3.8-3.8-3.4-6.2-8.4-6.6-13.4v-1.6l-6.6-353.4 3.4-65 3.4-63.4c0.6-9.4 8.4-17.2 17.8-17.2s17.2 7.8 17.2 17.2l7.8 128.4-7.8 355c-0.8 6-4 11.6-9 14.4zM592.2 655.8c-2.8 1.6-5.6 2.8-8.8 2.8s-6.2-1.2-8.8-2.8c-4.4-2.8-7.2-7.8-7.2-13.4l-0.6-3.4-5.6-321.6s0-0.6 6.2-131.2v-0.6c0-3.4 1.2-6.6 3.4-9.4 3.4-3.8 7.8-6.2 12.8-6.2 4.4 0 8.4 2.2 11.2 5 3.4 2.8 5 6.6 5 11.2l0.6 13.4 6.2 117.2-6.6 325.6c-0.6 5.6-3.4 10.6-7.8 13.4zM369.4 610.8c-6.2 0-11.6-5.6-11.6-12.2l-8.8-281.2 8.8-134.4c0.6-6.6 5.6-11.6 11.6-11.6 6.6 0 11.6 5 12.2 11.6l10 134.4-10 281.2c-0.4 6.6-5.4 12.2-12.2 12.2zM1122.8 485.2c-21.6 0-42.2-4.4-61.2-12.2-12.8 141.6-131.6 252.8-276.6 252.8-35.6 0-70-6.6-100.6-18.8-12.2-4.4-15.6-8.8-15.6-18.4v-499.4c0-10 7.8-17.2 17.2-18.4h436.6c86.6 0 157.2 70 157.2 156.6 0.2 87.2-70.4 157.8-157 157.8zM529.4 605.8c-8.4 0-15-6.6-15.6-15.6l-6.6-273.4 6.6-131.2c0.6-8.4 7.2-15 15.6-15s15 6.6 15 15l7.8 131.2-7.8 273.4c-0.6 9-6.6 15.6-15 15.6zM422.2 621.4c-6.6 0-12.8-6.2-12.8-13.4l-7.8-290.6 7.8-133.8c0.6-7.2 6.2-12.8 12.8-12.8 7.2 0 12.8 5.6 13.4 12.8l8.8 133.8-8.8 290.6c-0.6 7.2-6.2 13.4-13.4 13.4zM475.6 614.6c-7.8 0-13.8-6.2-13.8-13.8l-7.8-283.4 7.8-132.8c0.6-7.8 6.2-13.8 13.8-13.8s13.8 6.2 13.8 13.8l8.4 132.8-8.4 283.4c0 7.8-6 13.8-13.8 13.8z" />
<glyph unicode="&#xe947;" glyph-name="snapchat" data-tags="snapchat" horiz-adv-x="992" d="M496 944c-274 0-496-222-496-496s222-496 496-496 496 222 496 496-222 496-496 496zM835 266.2c-7-16.2-36.2-28-89.6-36.4-2.8-3.8-5-19.6-8.6-31.8-2.2-7.4-7.4-11.8-16.2-11.8h-0.4c-12.4 0-25.6 5.8-51.6 5.8-35.2 0-47.4-8-74.8-27.4-29-20.6-56.8-38.2-98.4-36.4-42-3.2-77.2 22.4-97 36.4-27.6 19.4-39.6 27.4-74.8 27.4-25 0-40.8-6.2-51.6-6.2s-15 6.6-16.6 12c-3.6 12.2-5.8 28.2-8.6 32-27.6 4.2-89.6 15-91 42.8-0.4 7.2 4.6 13.6 11.8 14.8 92.6 15.2 134.2 110.2 136 114.2 0 0.2 0.2 0.4 0.4 0.6 5 10 6 18.4 3.2 25-6.8 15.8-35.8 21.4-48 26.4-31.6 12.4-36 26.8-34 36.6 3.2 17 28.8 27.6 43.8 20.6 11.8-5.6 22.4-8.4 31.4-8.4 6.6 0 11 1.6 13.2 2.8-2.8 47.8-9.4 116 7.6 154.2 45 100.6 140.2 108.6 168.2 108.6 1.2 0 12.2 0.2 13.4 0.2 69.4 0 136-35.6 168.6-108.6 17-38.2 10.4-106.2 7.6-154.2 2.2-1.2 5.8-2.6 11.4-2.8 8.6 0.4 18.4 3.2 29.4 8.4 8 3.8 19.2 3.2 27.2 0 12.6-4.6 20.6-13.6 20.8-23.8 0.2-13-11.4-24.2-34.4-33.2-2.8-1.2-6.2-2.2-9.8-3.4-13-4.2-32.8-10.4-38-23-2.8-6.6-1.6-15 3.2-25 0.2-0.2 0.2-0.4 0.4-0.6 1.8-4 43.4-99 136-114.2 8-2 14.2-11 9.8-21.6z" />
<glyph unicode="&#xe948;" glyph-name="snapchat-square" data-tags="snapchat-square" horiz-adv-x="896" d="M800 896h-704c-53 0-96-43-96-96v-704c0-53 43-96 96-96h704c53 0 96 43 96 96v704c0 53-43 96-96 96zM787 266.2c-7-16.2-36.2-28-89.6-36.4-2.8-3.8-5-19.6-8.6-31.8-2.2-7.4-7.4-11.8-16.2-11.8h-0.4c-12.4 0-25.6 5.8-51.6 5.8-35.2 0-47.4-8-74.8-27.4-29-20.6-56.8-38.2-98.4-36.4-42-3.2-77.2 22.4-97 36.4-27.6 19.4-39.6 27.4-74.8 27.4-25 0-40.8-6.2-51.6-6.2s-15 6.6-16.6 12c-3.6 12.2-5.8 28.2-8.6 32-27.6 4.2-89.6 15-91 42.8-0.4 7.2 4.6 13.6 11.8 14.8 92.6 15.2 134.2 110.2 136 114.2 0 0.2 0.2 0.4 0.4 0.6 5 10 6 18.4 3.2 25-6.8 15.8-35.8 21.4-48 26.4-31.6 12.4-36 26.8-34 36.6 3.2 17 28.8 27.6 43.8 20.6 11.8-5.6 22.4-8.4 31.4-8.4 6.6 0 11 1.6 13.2 2.8-2.8 47.8-9.4 116 7.6 154.2 45 100.6 140.2 108.6 168.2 108.6 1.2 0 12.2 0.2 13.4 0.2 69.4 0 136-35.6 168.6-108.6 17-38.2 10.4-106.2 7.6-154.2 2.2-1.2 5.8-2.6 11.4-2.8 8.6 0.4 18.4 3.2 29.4 8.4 8 3.8 19.2 3.2 27.2 0 12.6-4.6 20.6-13.6 20.8-23.8 0.2-13-11.4-24.2-34.4-33.2-2.8-1.2-6.2-2.2-9.8-3.4-13-4.2-32.8-10.4-38-23-2.8-6.6-1.6-15 3.2-25 0.2-0.2 0.2-0.4 0.4-0.6 1.8-4 43.4-99 136-114.2 8-2 14.2-11 9.8-21.6z" />
<glyph unicode="&#xe949;" glyph-name="snapchat-ghost" data-tags="snapchat-ghost" d="M1021.692 174.654c-10.422-24.314-54.478-42.178-134.72-54.636-4.128-5.572-7.55-29.372-13.014-47.912-3.25-11.132-11.246-17.738-24.256-17.738l-0.594 0.010c-18.79 0-38.406 8.646-77.704 8.646-53.042 0-71.324-12.086-112.508-41.176-43.664-30.876-85.542-57.528-148.054-54.798-63.292-4.668-116.050 33.816-145.742 54.808-41.428 29.286-59.656 41.164-112.482 41.164-37.728 0-61.472-9.44-77.704-9.44-16.146 0-22.426 9.844-24.844 18.080-5.406 18.378-8.808 42.526-13.046 48.26-41.358 6.418-134.62 22.688-136.996 64.3-0.020 0.349-0.032 0.758-0.032 1.169 0 10.514 7.634 19.244 17.661 20.952l0.126 0.018c139.166 22.91 201.848 165.802 204.454 171.868 0.148 0.352 0.31 0.688 0.474 1.030 7.426 15.074 9.088 27.698 4.926 37.506-10.1 23.792-53.744 32.328-72.106 39.592-47.43 18.732-54.030 40.256-51.224 55.008 4.874 25.672 43.45 41.47 66.004 30.906 17.838-8.362 33.686-12.594 47.094-12.594 10.044 0 16.424 2.408 19.92 4.342-4.086 71.872-14.202 174.58 11.374 231.938 67.546 151.436 210.712 163.204 252.954 163.204 1.888 0 18.282 0.178 20.22 0.178 104.296 0 204.508-53.56 253.446-163.286 25.554-57.3 15.498-159.584 11.39-232.018 3.164-1.744 8.714-3.884 17.198-4.278 12.794 0.572 27.63 4.778 44.138 12.514 12.17 5.692 28.812 4.922 40.96-0.116l0.058-0.020c18.952-6.77 30.878-20.43 31.178-35.74 0.368-19.494-17.044-36.33-51.756-50.036-4.236-1.67-9.388-3.31-14.868-5.050-19.594-6.212-49.2-15.61-57.232-34.542-4.158-9.808-2.512-22.422 4.92-37.496 0.174-0.336 0.332-0.684 0.478-1.030 2.602-6.060 65.23-148.92 204.46-171.868 12.854-2.116 22.326-15.754 15.45-31.718z" />
<glyph unicode="&#xe94a;" glyph-name="slideshare" data-tags="slideshare" d="M498.858 537.128c0-63.432-55.43-115.434-123.434-115.434-68.002 0-123.432 52.002-123.432 115.434 0 64.002 55.43 115.432 123.432 115.432s123.434-51.43 123.434-115.432zM1007.446 437.124c-36.572-45.146-106.288-100.576-212.578-144.006 112.576-383.444-274.868-444.588-268.582-248.010 0-3.428-0.572 105.718-0.572 186.864-8.57 1.716-17.142 4-27.428 6.286 0-81.716-0.572-196.578-0.572-193.15 6.286-196.578-381.158-135.434-268.582 248.010-106.29 43.43-176.006 98.86-212.58 144.006-18.286 27.428 1.716 56.574 32.002 35.43 4-2.856 8.57-5.714 12.57-8.57v396.584c0.002 54.858 41.146 99.432 92.006 99.432h718.314c50.858 0 92.004-44.574 92.004-99.432v-396.586l12 8.57c30.286 21.146 50.286-8 31.998-35.428zM914.302 815.424c0 65.716-21.144 91.432-81.718 91.432h-635.452c-63.432 0-81.146-21.716-81.146-91.432v-384.586c135.434-70.86 251.44-58.288 314.87-56.002 26.858 0.572 44.002-4.572 54.288-15.43 3.378-3.374 20.046-18.892 40.574-34.286 2.286 31.43 20.002 51.43 67.432 49.716 64.574-2.856 183.436-15.43 321.154 59.432v381.156zM662.292 652.56c-68.004 0-123.432-51.43-123.432-115.432 0-63.432 55.43-115.434 123.432-115.434 68.574 0 123.432 52.002 123.432 115.434 0 64.002-54.858 115.432-123.432 115.432z" />
<glyph unicode="&#xe94b;" glyph-name="slack" data-tags="slack" horiz-adv-x="896" d="M488.4 525l38.6-115.4-119.6-40-38.6 115.4 119.6 40zM571.2 37.6c-308-92.4-441.2-20.8-533.6 287.2s-20.8 441.2 287.2 533.6c308 92.4 441.2 20.8 533.6-287.2s20.8-441.2-287.2-533.6zM732.4 430c-7.8 24.4-34.4 37.2-58.8 29.4l-58-19.4-38.6 115.4 58 19.4c24.4 7.8 37.2 34.4 29.4 58.8s-34.4 37.2-58.8 29.4l-58-19.4-20 60.2c-7.8 24.4-34.4 37.2-58.8 29.4s-37.2-34.4-29.4-58.8l20-60.2-119.6-40.2-20 60.2c-7.8 24.4-34.4 37.2-58.8 29.4s-37.2-34.4-29.4-58.8l20-60.2-58-19.4c-24.4-7.8-37.2-34.4-29.4-58.8 6.4-18.6 24.4-30.8 43-31.6 8.6-1.2 15.4 2 73.8 21.4l38.6-115.4-58-19.4c-24.4-7.8-37.2-34.4-29.4-58.8 6.4-18.6 24.4-30.8 43-31.6 8.6-1.2 15.4 2 73.8 21.4l20-60.2c7.4-21.6 31.6-37.2 58.8-29.4 24.4 7.8 37.2 34.4 29.4 58.8l-20 60.2 119.6 40.2 20-60.2c7.4-21.6 31.6-37.2 58.8-29.4 24.4 7.8 37.2 34.4 29.4 58.8l-20 60.2 58 19.4c24.4 8.4 37.2 35 29.4 59.2z" />
<glyph unicode="&#xe94c;" glyph-name="slack-hash" data-tags="slack-hash" horiz-adv-x="896" d="M892.4 419.2c-12.4 38-53.8 58.2-92 45.8l-90.8-30.2-60.6 180 90.8 30.2c38.2 12.4 58.2 53.6 46 91.8-12.4 38-53.8 58.2-92 45.8l-90.8-30.2-31.4 94c-12.4 38-53.8 58.2-92 45.8s-58.2-53.6-46-91.8l31.4-94-186.8-62.4-31.4 94c-12.4 38-53.8 58.2-92 45.8s-58.2-53.6-46-91.8l31.4-94-90.6-30c-38.2-12.4-58.2-53.6-46-91.8 10-29 38.2-48 67.2-49.2 13.6-2 24 3.2 115.4 33.6l60.6-180-90.8-30.2c-38-12.4-58.2-53.8-46-91.8 10-29 38.2-48 67.2-49.2 13.6-2 24 3.2 115.4 33.6l31.4-94c11.8-33.8 49.4-58 92-45.8 38.2 12.4 58.2 53.6 46 91.8l-31.4 94 187.2 62.6 31.4-94c11.8-33.8 49.4-58 92-45.8 38.2 12.4 58.2 53.6 46 91.8l-31.4 94 90.8 30.2c38 12 58.2 53.4 45.8 91.4zM384.2 324.8l-60.6 180.4 187 62.6 60.6-180.4-187-62.6z" />
<glyph unicode="&#xe94d;" glyph-name="skype" data-tags="skype" horiz-adv-x="896" d="M849.4 360.4c5.8 28 9.4 57.8 9.4 87.6 0 227-183.8 410.6-410.6 410.6-29.8 0-59.4-3.4-87.6-9.4-38 29.4-85.2 46.8-136.6 46.8-123.6 0-224-100.4-224-224 0-51.4 17.4-98.6 46.6-136.4-5.8-28-9.4-57.8-9.4-87.6 0-227 183.8-410.6 410.6-410.6 29.8 0 59.4 3.4 87.6 9.4 38-29.2 85.2-46.6 136.4-46.6 123.6 0 224 100.4 224 224 0.2 51.2-17.2 98.4-46.4 136.2zM460.2 177.4c-131.2 0-241 58.4-241 130 0 32 18 61.2 59 61.2 62.4 0 68.2-89.8 176.2-89.8 51.4 0 84.6 22.8 84.6 52.6 0 37.4-32 43.2-84 56-125 30.8-235.6 44-235.6 174.4 0 118.4 117.2 162.2 218.2 162.2 110.2 0 221.6-43.8 221.6-110.8 0-33.8-22.8-63.6-60.6-63.6-56.6 0-58.4 67-150 67-51.4 0-84-14-84-45 0-39.6 41.6-43.6 138.2-66 82.8-18.6 181.4-53.6 181.4-155.2 0-118.2-114.2-173-224-173z" />
<glyph unicode="&#xe94e;" glyph-name="skyatlas" data-tags="skyatlas" horiz-adv-x="1280" d="M1280 301.4c0-131.8-105-228.8-235-228.8-331.8 0-393.2 499.4-719.4 499.4-293.8 0-294.2-424.4 11.2-424.4 85 0 181.8 35.6 250.6 85 11.2 8.2 33.8 32.6 45.6 32.6s21.8-10 21.8-21.8c0-15.6-26.2-38.2-37.4-48.2-81.8-71.2-200.6-122.4-309.4-122.4-166.8-0.2-308 118-308 289.8s135 298.2 305.6 298.2c370.6 0 445-491.8 723.8-491.8 199.8 0 189.6 279.4 6.8 279.4-35 0-70-23.2-93.8-23.2-16.8 0-31.8 14.4-31.8 31.2 0 23.2 10.6 47.4 10.6 72.6 0 133.2-101.8 229.4-233.8 229.4-106.2 0-160-73.8-177.6-73.8-12.4 0-22.4 10-22.4 22.4 0 11.2 8.2 20.6 15.6 28.8 50.6 57.6 129.4 87.4 205.6 87.4 158.8 0 278.2-116.8 278.2-275.6 0-13.8-0.6-27.4-2.4-41.2 23.8 6.2 48.2 9.4 71.8 9.4 121.4 0 223.8-90.6 223.8-214.4z" />
<glyph unicode="&#xe94f;" glyph-name="sistrix" data-tags="sistrix" horiz-adv-x="896" d="M896 62l-293.6 297.6c40 55.8 63.8 124.4 63.8 198.4 0 186.2-149.4 337.8-333 337.8-183.8 0.2-333.2-151.4-333.2-337.6s149.4-337.8 333-337.8c79.6 0 152.6 28.4 210 75.8l292-296.2 61 62zM333 298.4c-141.2 0-256.2 116.6-256.2 259.8s115 259.8 256.2 259.8 256.2-116.6 256.2-259.8-114.8-259.8-256.2-259.8z" />
<glyph unicode="&#xe950;" glyph-name="simplybuilt" data-tags="simplybuilt" d="M962.4 832h-212c-29 0-53.2-23.6-53.2-52.6v-79.2h-370.6v79.2c0 29-24 52.6-53.2 52.6h-212c-29.2 0-52.8-23.6-52.8-52.6v-662.8c0-29 23.6-52.6 53.2-52.6h900.8c29.6 0 53.2 23.6 53.2 52.6v662.8c-0.4 29-24 52.6-53.4 52.6zM299.6 248.4c-73.2 0-132.8 59.4-132.8 132.8 0 73.8 59.4 133.2 132.8 133.2 73.8 0 133.2-59.4 133.2-133.2 0-73.4-59.4-132.8-133.2-132.8zM724.4 248.4c-73.8 0-133.2 59.4-133.2 133.2 0 73.2 59.4 132.8 133.2 132.8 73.2 0 132.8-59.4 132.8-132.8 0-73.8-59.6-133.2-132.8-133.2z" />
<glyph unicode="&#xe951;" glyph-name="shirtsinbulk" data-tags="shirtsinbulk" horiz-adv-x="896" d="M790.416 516.834h21.584v-67.084h-21.584v67.084zM790.416 536.084h21.584v67.084h-21.584v-67.084zM790.416 363.418h21.584v67.082h-21.584v-67.082zM717.5 689.5h-67.084v-21h67.084v21zM790.416 277.084h21.584v67.084h-21.584v-67.084zM623 689.5h-67.084v-21h67.084v21zM528.5 689.5h-66.5v-21h66.5v21zM434 689.5h-66.5v-21h66.5v21zM790.416 622.416h21.584v67.084h-67.084v-21h45.5v-46.084zM278.832 104.416l61.25-26.834 8.75 19.834-61.25 26.834-8.75-19.834zM358.166 70l60.668-27.416 8.748 19.832-60.666 26.834-8.75-19.25zM790.416 190.75h21.584v67.084h-21.584v-67.084zM120.75 174.416l61.25-26.832 8.75 19.248-61.25 27.418-8.75-19.834zM200.082 139.418l61.25-26.834 8.75 19.834-61.25 26.832-8.75-19.832zM464.916 62.416l8.75-19.832 61.252 27.416-8.75 19.25-61.252-26.834zM701.75 166.832l8.75-19.248 61.248 26.832-8.748 19.834-61.25-27.418zM623 132.418l8.75-19.834 61.25 26.834-8.748 19.832-61.252-26.832zM543.666 97.416l8.75-19.834 61.25 26.834-8.75 19.834-61.25-26.834zM623 866.834h-67.084v-21h67.084v21zM811.418 866.834h-66.502v-21h66.502v21zM434 866.834h-66.5v-21h66.5v21zM717.5 866.834h-67.084v-21h67.084v21zM528.5 866.834h-66.5v-21h66.5v21zM896 952.584v-812l-452.668-197.168-443.332 197.168v812h896zM837.668 718.668h-779.336v-540.168l385.584-171.5 393.75 171.5v540.168zM837.668 894.25h-779.336v-117.25h779.334v117.25zM151.084 866.834h-66.502v-21h66.502v21zM340.084 866.834h-67.084v-21h67.084v21zM245.582 866.834h-67.082v-21h67.084v21zM260.75 393.75c0 100.334 82.25 182.584 182.584 182.584 100.916 0 182.584-82.25 182.584-182.584 0-100.916-81.666-182.584-182.584-182.584-100.334 0.002-182.584 81.668-182.584 182.584zM502.25 357.582c0-26.25-47.834-28.582-65.332-28.582-24.5 0-59.5 5.25-71.75 29.75h-1.75l-18.086-36.75c29.752-18.666 58.334-24.5 94.5-24.5 39.084 0 102.084 11.666 102.084 62.418 0 96.25-156.916 32.666-156.916 75.832 0 26.25 41.416 29.75 59.5 29.75 21.582 0 58.332-6.416 71.166-26.248h1.75l17.502 33.832c-30.334 12.25-54.834 23.918-88.668 23.918-40.25 0-99.166-12.834-99.166-63.584 0-88.668 155.166-23.918 155.166-75.836zM245.582 689.5h-67.082v-21h67.084v21zM105.584 668.5h45.5v21h-67.084v-67.084h21.584v46.084zM105.584 603.168h-21.584v-67.084h21.584v67.084zM340.084 689.5h-67.084v-21h67.084v21zM105.584 516.834h-21.584v-67.084h21.584v67.084zM105.584 344.166h-21.584v-67.084h21.584v67.084zM105.584 430.5h-21.584v-67.084h21.584v67.084zM105.584 257.834h-21.584v-67.084h21.584v67.084z" />
<glyph unicode="&#xe952;" glyph-name="servicestack" data-tags="servicestack" horiz-adv-x="992" d="M176 528c163.4-20.4 547.4-204.6 608-464h-784c199 16.2 369 274 176 464zM240 832c64.6-71.2 95.4-167.8 92.8-267.2 165.8-67.4 414.6-247.4 467.2-500.8h192c-81.4 432.2-546.4 737-752 768z" />
<glyph unicode="&#xe953;" glyph-name="sellsy" data-tags="sellsy" horiz-adv-x="1280" d="M1079.42 485.384c6.128 24.514 8.58 49.642 8.58 74.768 0 185.084-150.764 335.848-335.848 335.848-154.44 0-289.268-106.024-326.040-255.562-30.644 26.352-69.868 41.060-110.314 41.060-92.542 0-167.924-75.38-167.924-167.922 0-14.708 1.84-30.030 6.13-44.738-85.8-40.45-141.57-127.476-141.57-222.468-0.002-136.056 110.926-246.37 246.368-246.37h762.396c135.44 0 246.368 110.314 246.368 246.368 0.002 112.768-77.832 212.050-188.146 239.016zM399.76 156.892c0-16.548-14.096-30.642-30.642-30.642h-61.898c-16.548 0-30.642 14.096-30.642 30.642v221.856c0 16.546 14.096 30.642 30.642 30.642h61.898c16.548 0 30.642-14.096 30.642-30.642v-221.856zM578.714 156.892c0-16.548-14.096-30.642-30.644-30.642h-61.898c-16.548 0-30.642 14.096-30.642 30.642v262.916c0 16.548 14.096 30.642 30.642 30.642h61.898c16.548 0 30.644-14.096 30.644-30.642v-262.916zM757.668 156.892c0-16.548-14.094-30.642-30.642-30.642h-61.898c-16.548 0-30.644 14.096-30.644 30.642v325.428c0 16.548 14.096 30.642 30.644 30.642h61.898c16.548 0 30.642-14.096 30.642-30.642v-325.428zM931.722 156.892c0-16.548-14.096-30.642-30.644-30.642h-56.994c-16.548 0-30.642 14.096-30.642 30.642v449.226c0 17.158 14.094 31.256 30.642 31.256h56.994c16.548 0 30.644-14.096 30.644-31.256v-449.226z" />
<glyph unicode="&#xe954;" glyph-name="sellcast" data-tags="sellcast" horiz-adv-x="896" d="M706.8 896h-517.4c-104.2 0-189.4-85.2-189.4-189.2v-517.4c0-104.2 85.2-189.4 189.4-189.4h517.4c104.2 0 189.4 85.2 189.4 189.2v517.6c0 104-85.2 189.2-189.4 189.2zM606.8 263.2c-55.8-96.4-179.8-129.8-276.4-74.4-45.8-79.6-109.8-17.2-84.6 26.4l31.4 54.4c11.8 20.6 38.4 27.8 59 15.8 37.2-21.6-0.2 0.2 37-21.4 55.2-31.8 126.8-12.6 158.8 42.6 31.8 55.2 12.6 126.8-42.6 158.8-35.6 20.4-1.2 0.8-37.2 21.2-49.2 28.4-6.8 103.8 43.2 75 37.2-21.6-0.2 0.2 37-21.4 96.8-56 130.2-180.6 74.4-277zM650.4 680.8c-34-59-32.6-57.6-38-63-13-13-32.6-17.4-53-7.2-37.2 21.6 0.2-0.2-37 21.4-55.2 31.8-126.8 12.6-158.8-42.6s-12.6-126.8 42.6-158.8c0 0 37-21.2 37.2-21.2 49.2-28.4 6.8-103.8-43.2-75-37.2 21.6 0.2-0.2-37 21.4-96.4 55.6-129.8 180.2-74.2 276.8 55.8 96.4 179.8 129.8 276.4 74.4l9.6 16.8c28.6 49.8 104 6.6 75.4-43z" />
<glyph unicode="&#xe955;" glyph-name="searchengin" data-tags="searchengin" horiz-adv-x="920" d="M441.2 699.4l-134.4-56.4v230.6l-109.4-380.6 109.4 48.4v-260.6l134.4 418.6zM274.8 892.8l-2.6-9.4-30.4-105.8c-80.6-31-137.8-109.2-137.8-200.6 0-104.6 68.6-191.8 166.8-211v-107.2c-155.8 21-270.8 156.4-270.8 318 0 161 119.6 294.4 274.8 316zM897.6-1.6c-22.4-22.4-46.2-24.6-57.2-21-10.8 3.6-54.2 39.8-120.8 88.8-66.6 49.2-67.2 71.4-86 113.4-18.8 41.8-60.8 85.2-115 104.8l-19.4 29.4c-49.4-33.8-106-53.8-162.6-57.4l4.2 13.2 31.8 99c93 23.8 161.8 108 161.8 208.4 0 109-76.8 204.2-192 214.2v104.2c166.4-10.2 297.6-149 297.6-318.6 0-67.2-22.4-129.4-58-180.8l29.2-19.2c19.6-54.2 63-96 104.8-114.8s64.4-19.4 113.6-86c49.2-66.4 85.4-109.8 89-120.6s1.4-34.6-21-57zM877.8 34.2c0 8.8-7.2 16-16 16s-16-7.2-16-16 7.2-16 16-16 16 7.2 16 16z" />
<glyph unicode="&#xe956;" glyph-name="scribd" data-tags="scribd" horiz-adv-x="768" d="M84.6 454.6c-32.2 38-49.4 91.8-49.6 159.8 0 200.8 150.4 306.2 334.4 306.2 197.2 3.2 313.6-98 368.6-141.2l-101-144.2-74.6 49.2 53.8 77.2c-73 48-158.8 73-246 71.6-101.4 1.6-223.4-54.4-223.4-152.4 0-37.4 22.4-41.4 57.2-31.2 46.6 10.6 83.8-1.2 111.6-28 52.8-48.6 46.4-135.2-1.4-183.8-58.4-59-170.4-54.6-229.6 16.8zM720 442.8c-31 37.6-77.8 58.8-126.4 57.2-76.2 4-142.2-56-141-134.4-1.4-33.6 12-66 36.8-88.6 28.2-27.8 66-39.4 112.6-28.8 34.8 10.2 57.2 6.2 57.2-31.2 0-8.6-1-17-2.8-25.4-33.4-81.8-119-128.8-242.8-128.8-103.8-0.4-204.8 32.8-288.2 94.6l67.4 78.8-71.2 54.8-121.6-143.6 30.8-27.6c105-93.6 240.8-145 381.4-144.4 102.8 0 188.8 21 267.2 88.2 114.2 102.8 108.4 298.4 40.6 379.2z" />
<glyph unicode="&#xe957;" glyph-name="schlix" data-tags="schlix" horiz-adv-x="896" d="M701 644.6l-108.4 92.2 146.8 78 156.6-88.4-195-81.8zM384 715.8l91.4 56.4 69.4-69.2-110.8-58-50 70.8zM253.8 702.6l63.8 44.2 34.4-56.8-73.4-45-24.8 57.6zM207.2 526.2l-17.6 69.6 59.2 36.6 26.2-70.6-67.8-35.6zM164.8 693.6l47.8 36.2 17.8-48-53.4-36.6-12.2 48.4zM118 547l-7.2 56.8 44.6 31 12.2-57.4-49.6-30.4zM56.8 513.8l41.6 25.6 6.6-66.8-45.8-24-2.4 65.2zM2.8 424l38.4 20.4 0.8-76.4-42-17.6 2.8 73.6zM121 305.4l-56.6-16.6-3.2 93.6 50.2 21.4 9.6-98.4zM198 433.6l-62.2-26-10.4 81.6 54.8 28.8 17.8-84.4zM246.4 206l-83.2-11.8-16.2 127 70.4 21.6 29-136.8zM303.4 485.8l42.4-114.2-92.4-27.2-27.4 108.2 77.4 33.2zM474.8 24.8l-141.8 6.6-48.6 191.6 110.4 17.2 80-215.4zM305 584.2l84.4 44.8 56-91.8-101.6-42.6-38.8 89.6zM387 394.4l122.6 37.4 105.6-173.2-159.6-22.6-68.6 158.4zM489.8 565.6l134.6 57.6 131-130.8-177.2-52.4-88.4 125.6z" />
<glyph unicode="&#xe958;" glyph-name="sass" data-tags="sass" horiz-adv-x="1281" d="M1102.2 376.2c-44.8-0.2-83.6-11-116-27-11.8 23.8-24 44.6-26 60.2-2.4 18.2-5 29-2.2 50.6s15.4 52.2 15.2 54.4c-0.2 2.2-2.8 13.2-28.6 13.4s-48-5-50.6-11.8c-2.6-6.8-7.6-22.2-10.6-38.2-4.6-23.4-51.6-107-78.2-150.6-8.8 17-16.2 32-17.8 44-2.4 18.2-5 29-2.2 50.6s15.4 52.2 15.2 54.4c-0.2 2.2-2.8 13.2-28.6 13.4s-48-5-50.6-11.8c-2.6-6.8-5.4-22.8-10.6-38.2s-67.8-154.6-84.2-190.8c-8.4-18.4-15.6-33.2-20.8-43.2s-0.4-0.6-0.8-1.8c-4.4-8.6-7-13.4-7-13.4v-0.2c-3.4-6.4-7.2-12.2-9-12.2-1.2 0-3.8 16.8 0.6 39.8 9.4 48.4 31.6 123.6 31.4 126.2-0.2 1.4 4.2 14.4-14.6 21.4-18.2 6.6-24.8-4.4-26.4-4.4s-2.8-4-2.8-4 20.2 84.8-38.8 84.8c-36.8 0-88-40.4-113.2-77-15.8-8.6-50-27.2-86-47-13.8-7.6-28-15.4-41.4-22.8-1 1-1.8 2-2.8 3-71.6 76.4-203.8 130.4-198.2 233 2 37.4 15 135.6 254.2 254.8 196 97.6 352.8 70.8 379.8 11.2 38.8-85-83.8-243.2-287.4-266-77.6-8.6-118.4 21.4-128.6 32.6-10.6 11.8-12.2 12.4-16.2 10.2-6.6-3.6-2.4-14 0-20.2 6-15.8 31-43.8 73.6-57.8 37.4-12.2 128.4-19 238.4 23.6 123.6 47.6 219.8 180.2 191.6 291.2-28.8 112.8-215.8 149.8-392.8 87-105.4-37.4-219.4-96.2-301.4-172.8-97.4-91.2-113-170.6-106.6-203.8 22.8-117.8 185.2-194.6 250.2-251.4-3.2-1.8-6.2-3.4-9-5-32.6-16.2-156.4-81-187.4-149.4-35-77.6 5.8-133.2 32.6-140.8 83.6-23.2 169.2 18.6 215.2 87.2s40.4 158.2 19.2 199c-0.2 0.6-0.6 1-0.8 1.6 8.4 5 17 10 25.6 15 16.6 9.8 32.8 18.8 47 26.6-8-21.6-13.8-47.6-16.8-85.2-3.6-44 14.6-101 38.2-123.4 10.4-9.8 23-10 30.8-10 27.6 0 40 22.8 53.8 50 17 33.2 32 71.8 32 71.8s-18.8-104.4 32.6-104.4c18.8 0 37.6 24.2 46 36.6v-0.2s0.4 0.8 1.4 2.4c2 3 3 4.8 3 4.8v0.6c7.6 13 24.2 42.8 49.2 92 32.4 63.6 63.4 143 63.4 143s2.8-19.4 12.4-51.6c5.6-19 17.4-39.8 26.8-60-7.6-10.4-12.2-16.4-12.2-16.4s0-0.2 0.2-0.4c-6-8-12.8-16.6-19.8-25-25.6-30.4-56-65.2-60-75.2-4.8-11.8-3.6-20.6 5.6-27.4 6.8-5.2 18.8-6 31.4-5 23 1.6 39.2 7.2 47 10.8 12.4 4.4 26.8 11.4 40.4 21.2 25 18.4 40.2 44.8 38.8 79.6-0.8 19.2-7 38.4-14.6 56.4 2.2 3.2 4.6 6.6 6.8 10 39.6 57.8 70.2 121.2 70.2 121.2s2.8-19.4 12.4-51.6c4.8-16.2 14.2-34 22.8-51.4-37.2-30.2-60.2-65.2-68.2-88.2-14.8-42.6-3.2-61.8 18.6-66.2 9.8-2 23.8 2.6 34.2 7 13 4.4 28.6 11.4 43.2 22.2 25 18.4 49.2 44.2 47.6 79.2-0.6 15.8-5 31.6-10.8 46.8 31.4 13.2 72.2 20.4 124.2 14.4 111.4-13 133.2-82.6 129-111.6-4.2-29.2-27.6-45.2-35.4-50s-10.2-6.6-9.6-10.2c1-5.2 4.6-5 11.2-3.8 9.2 1.6 58.4 23.6 60.6 77.4 3.2 68-62.2 142.8-178 142.2zM243.6 86.8c-36.8-40.2-88.4-55.4-110.6-42.6-23.8 13.8-14.4 73 31 115.8 27.6 26 63.2 50 86.8 64.8 5.4 3.2 13.2 8 22.8 13.8 1.6 1 2.4 1.4 2.4 1.4 1.8 1.2 3.8 2.2 5.8 3.4 16.6-60.8 0.6-114.4-38.2-156.6zM512.4 269.6c-12.8-31.4-39.8-111.4-56.2-107.2-14 3.6-22.6 64.6-2.8 124.6 10 30.2 31.2 66.2 43.8 80.2 20.2 22.6 42.4 29.8 47.6 20.8 7-11.8-24.4-98.8-32.4-118.4zM734.4 163.6c-5.4-2.8-10.4-4.6-12.8-3.2-1.8 1 2.2 4.8 2.2 4.8s27.8 29.8 38.8 43.4c6.4 8 13.8 17.4 21.8 27.8 0-1 0.2-2 0.2-3.2-0.2-35.8-34.6-60-50.2-69.6zM905.6 202.6c-4 2.8-3.4 12.2 10 41.4 5.2 11.4 17.2 30.6 38 49 2.4-7.6 3.8-14.8 3.8-21.6-0.2-45-32.4-61.8-51.8-68.8z" />
<glyph unicode="&#xe959;" glyph-name="safari" data-tags="safari" d="M473.8 446.4c0 18.2 13.2 35.4 32.6 35.4 17.8 0 34.8-12.8 34.8-32.2 0-18.2-12.8-35.4-32.2-35.4-18 0-35.2 13.4-35.2 32.2zM1008 448c0-274-222-496-496-496s-496 222-496 496 222 496 496 496 496-222 496-496zM954.8 448c0 244.6-198.2 442.8-442.8 442.8s-442.8-198.2-442.8-442.8 198.2-442.8 442.8-442.8 442.8 198.2 442.8 442.8zM809.8 254.8c0-7.2 26-20.4 32.6-24.4-54.8-83-139.6-142.8-235.8-166.6l-8.8 37c-0.6 5-3.8 5.6-8.4 5.6-3.8 0-6-5.6-5.6-8.4l8.8-37.6c-26.6-5.6-53.6-8.4-80.8-8.4-72.6 0-144 20.4-206 58.2 3.4 5.6 24.4 36 24.4 40.4 0 3.8-3.4 7.2-7.2 7.2-7.8 0-24.4-33.2-29.4-39.8-83.6 55.4-144 141.2-167.2 239.2l38.2 8.4c4.4 1.2 5.6 4.4 5.6 8.4 0 3.8-5.6 6-8.8 5.6l-37.4-8.6c-5 25.4-7.8 51-7.8 77 0 74.2 21 147.2 60.4 209.8 5.6-3.4 32.2-21.6 36.6-21.6 3.8 0 7.2 2.8 7.2 6.6 0 7.8-29.4 22.6-36 27.2 56.4 82.4 142.2 141.8 239.6 163.8l8.4-37c1.2-4.4 4.4-5.6 8.4-5.6s6 5.6 5.6 8.8l-8.4 36.6c24.4 4.4 49.2 7.2 74.2 7.2 74.2 0 146.6-21 209.8-60.4-3.8-5.6-21.6-31.6-21.6-36 0-3.8 2.8-7.2 6.6-7.2 7.8 0 22.6 28.8 26.6 35.4 82-55.4 140.6-140 163.4-236.4l-31-6.6c-5-1.2-5.6-4.4-5.6-8.8 0-3.8 5.6-6 8.4-5.6l31.6 7.2c5-25.4 7.8-51.4 7.8-77.4 0-72.6-20-144-57.6-205.4-5.6 2.8-28.8 19.4-33.2 19.4-4.2 0-7.6-3.4-7.6-7.2zM743.4 739.2c-26-24.4-268.4-247.4-275.2-259l-193.2-321c25.4 23.8 268.4 248 274.6 258.6l193.8 321.4z" />
<glyph unicode="&#xe95a;" glyph-name="rockrms" data-tags="rockrms" horiz-adv-x="992" d="M496 944c-274 0-496-222-496-496s222-496 496-496 496 222 496 496-222 496-496 496zM810.8 105h-180l-224 262.6c-35.8 40.8-7.8 112.2 53.2 112.2h150.6l-169.2 198.6-168.6-197.8h-180l294.2 345c28.8 36.8 82.6 34.6 109 0l315.4-370.2c38-45.6 4-114.4-55.2-112.2-1.2 0-148.4-0.4-148.4-0.4l203-237.8z" />
<glyph unicode="&#xe95b;" glyph-name="rocketchat" data-tags="rocketchat" horiz-adv-x="896" d="M896 447.6c0 174.4-199.2 306.6-439.6 306.6-37.6 0-74.6-3.2-110.6-9.6-22.2 21-48.4 40-76 54.8-147.4 72.2-269.8 1.8-269.8 1.8s113.8-94.2 95.2-176.6c-104.6-104.6-105-248.2 0-353.2 18.6-82.6-95.2-176.6-95.2-176.6s122.4-70.4 269.8 1.6c27.6 15 53.8 33.8 76 54.8 36-6.4 73-9.6 110.6-9.6 240.6 0.2 439.6 131.6 439.6 306zM456.6 199.6c-47.4 0-92.6 5.6-134.6 15.6-42.6-51.6-136.2-123.4-227.2-100.2 29.6 32 73.4 86.2 64 175.2-54.6 42.8-87.2 97.4-87.2 157 0 136.8 172.4 247.8 385 247.8s385-111 385-247.8c0-136.6-172.4-247.6-385-247.6zM507.8 447.4c0-28.4-23-51.6-51.2-51.6s-51.2 23-51.2 51.6c0 28.4 23 51.6 51.2 51.6s51.2-23.2 51.2-51.6zM685.6 447.4c0-28.4-22.8-51.6-51.2-51.6-28.2 0-51.2 23-51.2 51.6 0 28.4 22.8 51.6 51.2 51.6 28.2 0 51.2-23.2 51.2-51.6zM329.8 447.4c0-28.4-22.8-51.6-51.2-51.6-28.2 0-51.2 23-51.2 51.6 0 28.4 22.8 51.6 51.2 51.6s51.2-23.2 51.2-51.6z" />
<glyph unicode="&#xe95c;" glyph-name="resolving" data-tags="resolving" horiz-adv-x="992" d="M562.4 403.6c92 26.6 99.2 47 88 86.8l-22.4 78.6c-12.2 41.8-36.8 56.2-142.2 25.6l-376.4-108.2 57.2-197.2 395.8 114.4zM497 944c-234.2 0-430.6-161.4-482.6-379l443.8 127.8c69.6 20.4 108.4 23.4 158.6 16.4 72.6-12.2 105.4-50 122.8-110.4l21.4-75.6c16.4-56.2 2-101.2-47-147.2-38.8-34.8-62.4-49-122.8-66.4l-185.2-53.2 440.8-54.2 19.4-68.4-96.2-26.6-573.6 74.6 46-160.4c73.6-44 160.6-69.4 252.6-69.4 274 0 497 222.8 497 496.6 2 272.6-221 495.4-495 495.4zM76.6 182.8l-76.6 263.6c0-97 28.6-186.8 76.6-263.6z" />
<glyph unicode="&#xe95d;" glyph-name="replyd" data-tags="replyd" horiz-adv-x="896" d="M640 0h-384c-140.8 0-256 115.2-256 256v384c0 140.8 115.2 256 256 256h384c140.8 0 256-115.2 256-256v-384c0-140.8-115.2-256-256-256zM386.8 413.6c-12.2 4-23.2 6.2-32.8 6.2-14.4 0-27-3.8-37.8-11.2s-19.2-18-25.6-31.6h-2.2l-8.4 36.6h-56v-277.8h72.2v179.4c3 10.8 8.8 19.6 17.4 26.4s19.6 10.2 32.4 10.2c9.2 0 19.6-2 31.2-6.2l9.6 68zM617.2 206.8c-6.4-4.8-15.4-9.6-27.4-14.2s-25.6-7-40.8-7c-24.4 0-42.2 6-53 17.8-11 11.8-17 29.4-18 52.8h166.6c1.8 9.6 3.2 18.8 4.2 27.8 1 8.8 1.4 17.2 1.4 25 0 21.4-3.2 39.4-9.4 53.8-6.4 14.4-14.6 26-25 34.4-10.4 8.6-22.2 14.6-35.6 18.4-13.4 3.6-27 5.6-41.2 5.6-42.2 0-75-12.2-98.4-36.6s-35-61-35-110c0-45.6 10.4-81.4 31.2-107.4 20.8-26.2 53.6-39.2 98.4-39.2 21.4 0 41.8 3 60.8 9.2s34.2 13.6 45.2 22.4l-24 47.2zM573.6 347.4c7.6-10.8 10.6-26.2 9.2-46.2h-103.4c1.8 18.8 7.4 34 16.4 45.2s23 17 42 17c16.4 0.2 28.2-5.2 35.8-16zM733.4 342.4c8.2-7.8 18.8-11.6 32.2-11.6 14 0 25.2 3.8 33.4 11.6s12.2 18.2 12.2 31.2-4 23.2-12.2 30.8c-8.2 7.6-19.2 11.4-33.4 11.4-13.4 0-24-3.8-32.2-11.4s-12.2-17.8-12.2-30.8 4-23.4 12.2-31.2zM733.4 141.4c8.2-7.8 18.8-11.6 32.2-11.6 14 0 25.2 3.8 33.4 11.6s12.2 18.2 12.2 31.2-4 23.2-12.2 30.8c-8.2 7.6-19.2 11.4-33.4 11.4-13.4 0-24-3.8-32.2-11.4s-12.2-17.8-12.2-30.8c0-13.2 4-23.4 12.2-31.2z" />
<glyph unicode="&#xe95e;" glyph-name="renren" data-tags="renren" d="M428 621.8c0-220.8-122-410.8-295.2-494.8-72.8 86.6-116.8 197.6-116.8 319.8 0 245.4 178.2 448.8 412 488.2v-313.2zM510-48c-85.8 0-166.6 22-237 60.8 114.4 72.2 206.8 181.4 237 309.2 31-127.8 123.4-237 237.6-309.4-70.2-38.6-151-60.6-237.6-60.6zM891.2 127c-173.2 84-295.2 273.8-295.2 494.8v313.2c233.8-39.4 412-242.8 412-488.2 0-122.2-44-233.2-116.8-319.8z" />
<glyph unicode="&#xe95f;" glyph-name="rendact" data-tags="rendact" horiz-adv-x="992" d="M496 944c-274 0-496-222-496-496s222-496 496-496c37.2 0 73.4 4.2 108.2 11.8-11.2 14.8-21.6 28.8-31.8 42.6-24.8-4.2-50.4-6.6-76.6-6.6-247.2 0.2-447.8 200.8-447.8 448.2s200.6 448 448 448 448-200.6 448-448c0-142-66-268.4-169-350.6-51.8-37.6-78.2-42.8-167 88.4-157.4 225.8-96 142.2-147.4 216.6 145.6-17.8 457 144 337.2 337.2-169.8 274-767.8 32.8-678.4-232.4 6.4-19.6 28.8-77.2 91.2-77.2 4 0 5.2 1.2 4 3.4-8.8 17.4-40.2 19.6-40.2 74.8 0 81 81 179.2 200.6 240 132.2 64.6 263.8 60.4 316.4-10.8 54.4-76.6-41.8-238.4-240.8-273.8 15 18.8 114 150.4 125.6 168 45.4 69.2 47.2 98 28 118.4-31 33.8-59 20.6-101.4 23.4-21.6 1.8-227.4-362.4-272.8-433.8-11.8-18-42.4-68.2-42.4-101.8 0-42.6 5.6-102.8 41.2-102.8 21.2 0 16 37.4 16 53.2 0 25.8 54.8 98.8 149.6 209.2 40.8-72.2 115.4-228.6 260.4-419.4 196 66.2 337 251.6 337 470 0.2 274-221.8 496-495.8 496z" />
<glyph unicode="&#xe960;" glyph-name="reddit" data-tags="reddit" d="M403 349c-27.6 0-49.8 22.2-49.8 49.2 0 27.6 22.2 49.8 49.8 49.8 27.2 0 49.2-22.2 49.2-49.8 0-27.2-22.2-49.2-49.2-49.2zM1008 448c0-274-222-496-496-496s-496 222-496 496 222 496 496 496 496-222 496-496zM743.4 530.4c-18.8 0-35.4-7.8-47.6-20-44.8 31-105.2 51-172.2 53.2l34.8 156.6 110.8-25c0-27.2 22.2-49.2 49.2-49.2 27.6 0 49.8 22.6 49.8 49.8s-22.2 49.8-49.8 49.8c-19.4 0-36-11.6-44.2-27.6l-122.4 27.2c-6 1.6-12.2-2.8-13.8-8.8l-38.2-172.8c-66.4-2.8-126.2-22.6-171-53.6-12.2 12.8-29.4 20.4-48.2 20.4-69.8 0-92.6-93.8-28.8-125.6-2.2-10-3.4-20.4-3.4-31 0-105.2 118.4-190.4 264-190.4 146.2 0 264.6 85.2 264.6 190.4 0 10.6-1.2 21.6-3.8 31.6 62.6 32 39.6 125-29.8 125zM605.6 298c-36.4-36.4-152.2-35.8-187.2 0-4.4 4.4-12.2 4.4-16.6 0-5-5-5-12.8 0-17.2 45.6-45.6 174.6-45.6 220.4 0 5 4.4 5 12.2 0 17.2-4.4 4.4-12.2 4.4-16.6 0zM621 448c-27.2 0-49.2-22.2-49.2-49.8 0-27.2 22.2-49.2 49.2-49.2 27.6 0 49.8 22.2 49.8 49.2 0 27.6-22 49.8-49.8 49.8z" />
<glyph unicode="&#xe961;" glyph-name="reddit-square" data-tags="reddit-square" horiz-adv-x="896" d="M566.4 269c5.4-5.4 5.4-13.6 0-18.4-49-49-187.6-49.2-236.8 0-5.4 4.8-5.4 13 0 18.4 4.8 4.8 13 4.8 17.8 0 37.4-38.4 162-39.2 201 0 4.8 4.6 13.2 4.6 18 0zM383.8 376.6c0 29.8-23.8 53.6-53 53.6-29.8 0-53.6-23.8-53.6-53.6 0-29.2 23.8-53 53.6-53 29.2 0 53 23.8 53 53zM565.2 430.2c-29.2 0-53-23.8-53-53.6 0-29.2 23.8-53 53-53 29.8 0 53.6 23.8 53.6 53 0 29.8-23.8 53.6-53.6 53.6zM896 800v-704c0-53-43-96-96-96h-704c-53 0-96 43-96 96v704c0 53 43 96 96 96h704c53 0 96-43 96-96zM696.6 518.8c-20.2 0-38-8.4-51.2-21.4-48.2 33.4-113 54.8-185 57.2l37.4 168.4 119-26.8c0-29.2 23.8-53 53-53 29.8 0 53.6 24.4 53.6 53.6s-23.8 53.6-53.6 53.6c-20.8 0-38.6-12.4-47.6-29.8l-131.4 29.2c-6.6 1.8-13-3-14.8-9.6l-41-185.6c-71.4-3-135.6-24.4-183.8-57.8-13 13.6-31.6 22-51.8 22-75 0-99.6-100.8-31-135-2.4-10.8-3.6-22-3.6-33.4 0-113 127.4-204.6 283.8-204.6 157 0 284.4 91.6 284.4 204.6 0 11.4-1.2 23.2-4.2 34 67.2 34.4 42.4 134.4-32.2 134.4z" />
<glyph unicode="&#xe962;" glyph-name="reddit-alien" data-tags="reddit-alien" d="M880.6 553c-30 0-56.4-12.4-75.8-31.8-71.4 49.4-167.6 81.2-274.2 84.6l55.4 249.6 176.4-39.6c0-43.2 35.2-78.4 78.4-78.4 44 0 79.4 36.2 79.4 79.4s-35.2 79.4-79.4 79.4c-30.8 0-57.4-18.6-70.6-44l-194.8 43.2c-9.8 2.6-19.4-4.4-22-14.2l-60.8-275.2c-105.8-4.4-201-36.2-272.6-85.6-19.4 20.2-46.8 32.6-76.8 32.6-111.2 0-147.6-149.2-45.8-200.2-3.6-15.8-5.2-32.6-5.2-49.4 0-167.6 188.8-303.4 420.6-303.4 232.8 0 421.6 135.8 421.6 303.4 0 16.8-1.8 34.4-6.2 50.2 99.8 51.2 63 199.4-47.6 199.4zM258.8 342.2c0 44 35.2 79.4 79.4 79.4 43.2 0 78.4-35.2 78.4-79.4 0-43.2-35.2-78.4-78.4-78.4-44-0.2-79.4 35.2-79.4 78.4zM687.4 155.2c-72.8-72.8-278.2-72.8-351 0-8 7-8 19.4 0 27.4 7 7 19.4 7 26.4 0 55.6-57 240-58 298 0 7 7 19.4 7 26.4 0 8.2-8 8.2-20.4 0.2-27.4zM685.8 263.6c-43.2 0-78.4 35.2-78.4 78.4 0 44 35.2 79.4 78.4 79.4 44 0 79.4-35.2 79.4-79.4-0.2-43-35.4-78.4-79.4-78.4z" />
<glyph unicode="&#xe963;" glyph-name="red-river" data-tags="red-river" horiz-adv-x="896" d="M706.4 896h-516.8c-104.8 0-189.6-84.8-189.6-189.6v-516.8c0-104.8 84.8-189.6 189.6-189.6h516.8c104.8 0 189.6 84.8 189.6 189.6v516.8c0 104.8-84.8 189.6-189.6 189.6zM289.8 558.2v-112.6c0-54-43.8-97.8-97.8-97.8v308.4c0 26.4 21.4 47.8 47.8 47.8h308.4c0-54-43.8-97.8-97.8-97.8h-112.6c-24.6 1.2-49.2-23.2-48-48zM642.4 414.2h-112.6c-24.6 1.2-49.2-23.2-48-48v-112.6c0-54-43.8-97.8-97.8-97.8v308.4c0 26.4 21.4 47.8 47.8 47.8h308.4c0-54-43.8-97.8-97.8-97.8z" />
<glyph unicode="&#xe964;" glyph-name="rebel" data-tags="rebel" d="M513-48c-278.6 0-495 232.4-486.6 508.2 5.6 158.4 86.4 304.4 233 400.8 0.6 0 3.8 1.2 2.2-1.6-11.6-11-222.6-259.6-28.2-452.8 99.6-99 180-5 180-5 77 100.2-1.2 251.8-1.2 251.8-20 49.8-91.4 80.2-91.4 80.2l57.6 63.6c48.8-21 86.4-77.4 86.4-77.4 1.6 59.2-43.8 122.8-43.8 122.8l89.2 101.4 88.6-100.2c-41-57.6-43.8-125.2-43.8-125.2 27.6 46 87 78.6 87 78.6l57-63.6c-54.8-17.8-90.8-79.8-90.8-79.8-31.6-57-54.2-178.8 1.2-254.6 64.8-89.2 175.4 5.6 175.4 5.6 205.4 183.8-21 450-21 450-12.2 11 1.6 5.6 1.6 5.6 100.2-73 229.2-168.8 232.4-409.6 4-291.2-199.8-498.8-484.8-498.8z" />
<glyph unicode="&#xe965;" glyph-name="react" data-tags="react" d="M836.4 605.6c-10.8 3.6-21.6 7-32.4 10.2 1.8 7.4 3.4 14.8 5 22.2 24.6 119.2 8.4 215-46.2 246.6-52.6 30.2-138.4-1.2-225.2-76.8-8.6-7.4-17-15.2-25-23-5.4 5.2-11 10.4-16.6 15.4-91 80.8-182.2 114.8-236.8 83-52.4-30.4-68-120.6-46-233.4 2.2-11.2 4.6-22.2 7.4-33.4-12.8-3.6-25.4-7.6-37.2-11.8-106.8-37-183.4-95.4-183.4-155.8 0-62.4 81.6-125 192.6-163 9-3 18-6 27.2-8.6-3-12-5.6-23.8-8-36-21-111-4.6-199 47.8-229.2 54-31.2 144.8 0.8 233.2 78.2 7 6.2 14 12.6 21 19.4 8.8-8.6 18-16.8 27.2-24.8 85.6-73.6 170.2-103.4 222.4-73.2 54 31.2 71.6 125.8 48.8 241-1.8 8.8-3.8 17.8-6 27 6.4 1.8 12.6 3.8 18.8 5.8 115.4 38.2 199 100 199 163.4 0 60.6-78.8 119.4-187.6 156.8zM565.8 775.4c74.4 64.8 143.8 90.2 175.4 72 33.8-19.4 46.8-97.8 25.6-200.8-1.4-6.8-2.8-13.4-4.6-20-44.4 10-89.4 17.2-134.6 21.2-26 37.2-54.4 72.8-85.2 106.2 7.8 7.4 15.4 14.4 23.4 21.4zM305.8 397.2c9.2-17.6 18.6-35 28.6-52.2 10.2-17.4 20.6-34.8 31.6-51.8-31.2 3.4-62.2 8.4-92.8 15 8.8 28.8 19.8 58.6 32.6 89zM305.8 498.4c-12.6 29.8-23.2 59-32 87.2 28.8 6.4 59.4 11.6 91.2 15.6-10.6-16.6-21-33.6-30.8-50.8-9.8-17-19.4-34.4-28.4-52zM328.6 447.8c13.2 27.6 27.6 54.6 42.8 81.2s31.6 52.4 48.8 77.8c30 2.2 60.6 3.4 91.8 3.4s62-1.2 91.8-3.4c17-25.2 33.2-51 48.6-77.4s29.8-53.4 43.4-80.8c-13.4-27.6-27.8-54.8-43.2-81.6-15.2-26.6-31.4-52.4-48.4-78-29.8-2.2-60.8-3.2-92.2-3.2s-61.8 1-91.2 2.8c-17.4 25.4-33.8 51.4-49.2 78s-29.6 53.6-43 81.2zM689.8 345.4c10.2 17.6 19.8 35.4 29.2 53.4 12.8-29 24-58.4 33.8-88.6-31-7-62.4-12.4-94-16 10.8 16.8 21 34 31 51.2zM718.6 498.4c-9.4 17.6-19 35.2-29 52.4-9.8 17-20 33.8-30.6 50.4 32.2-4 63-9.4 91.8-16-9.2-29.6-20-58.4-32.2-86.8zM512.4 723.4c21-22.8 40.8-46.8 59.2-71.6-39.6 1.8-79.4 1.8-119 0 19.6 25.8 39.8 49.8 59.8 71.6zM280.4 846c33.6 19.6 108.2-8.4 186.8-78 5-4.4 10-9.2 15.2-14-31-33.4-59.6-69-85.8-106.2-45.2-4-90-11-134.4-20.8-2.6 10.2-4.8 20.6-7 31-18.8 96.8-6.4 169.8 25.2 188zM231.4 318.8c-8.4 2.4-16.6 5-24.8 7.8-42.6 13.4-91 34.6-126 62.4-20.2 14-33.8 35.6-37.6 59.8 0 36.6 63.2 83.4 154.4 115.2 11.4 4 23 7.6 34.6 11 13.6-43.4 30-86 49-127.2-19.2-41.8-35.8-85-49.6-129zM464.6 122.8c-33-30.2-71.2-54.2-112.8-70.6-22.2-10.6-47.8-11.6-70.6-2.6-31.8 18.4-45 89-27 184 2.2 11.2 4.6 22.4 7.4 33.4 44.8-9.6 90-16.2 135.8-19.6 26.4-37.4 55.4-73.2 86.4-106.8-6.4-6.2-12.8-12.2-19.2-17.8zM513.6 171.4c-20.4 22-40.8 46.4-60.6 72.6 19.2-0.8 39-1.2 59-1.2 20.6 0 40.8 0.4 60.8 1.4-18.4-25.4-38.2-49.6-59.2-72.8zM775 111.4c-1.8-24.4-13.8-47.2-33-62.6-31.8-18.4-99.6 5.6-172.8 68.4-8.4 7.2-16.8 15-25.4 23 30.6 33.8 58.8 69.6 84.4 107.2 45.8 3.8 91.4 10.8 136.4 21 2-8.2 3.8-16.4 5.4-24.4 9.8-43.2 11.4-88.2 5-132.6zM811.4 326.4c-5.6-1.8-11.2-3.6-17-5.2-14 43.6-31.2 86.2-51 127.6 19.2 40.8 35.4 82.8 49 125.8 10.4-3 20.4-6.2 30-9.4 93.2-32 158.6-79.6 158.6-116 0-39.2-69.8-89.8-169.6-122.8zM512 539.6c50.6 0 91.6-41 91.6-91.6s-41-91.6-91.6-91.6c-50.6 0-91.6 41-91.6 91.6s41 91.6 91.6 91.6z" />
<glyph unicode="&#xe966;" glyph-name="ravelry" data-tags="ravelry" d="M814.8 837c-151.6 78.8-299.2 61-449-9-22.6-10.4-31-21.2-39.8-38-20.6-38.4-32.4-74.8-39.8-105.4-42.4-51.2-72.8-112.2-86.6-179.8-21.2-36-41.8-82.8-46.2-142.8 0 0-1.4-15.2-1-15.8-70.6 9.2-152.4 54-152.4 54 18.2-29 122.6-64.6 152.6-75.8 0 0 3.4-196 129-262.4-22.6 34.4-26.6 40.4-26.6 40.4s-65.4 119.6-54.2 208.2c1.4 0 3-0.4 4.4-0.4 47.8-174.8 206.4-302.8 393.8-302.8 12.4 0 24.2 0.4 36 1.4 28-3 55.2-1 80.2 7.8 13.8 4.4 27.6 12.8 40.4 21.6 140.4 78.2 201.8 164 246.2 295.4 10.8 32 16.2 71 19.6 104.4 17.4 164.6-61.2 323.2-206.6 399zM277.6 633.6s-2.4-24.6-1.4-39.4c-6.8-5-20.2-16.2-36.4-33.4 10.4 25.6 22.6 50.2 37.8 72.8zM215.2 389.8c8.8 34.4 26.6 78.2 59.6 110.2 0 0 3.4-96 31.6-180.2l-82.8 13.8c-4.4 18.4-7 37-8.4 56.2zM231 304.2c29.6-6.4 68-15.2 86.2-18.2 54.6-153.6 216.6-248.6 216.6-248.6 2-1 3.4-1.4 5.4-2-146.2 23.2-265.4 129.4-308.2 268.8zM772 71.8c-29-9.4-72.4-16.8-129.4-7.4 0 0-182.2 46.2-255 215.6 76.4-1.4 104.8 0.4 156 7.8 78.8 11.4 158 32.4 230 66 23.6 10.8 22.2 38.8 19.2 59.6-4 25.6-22.2 24.2-42.8 9.4 0 0-164-117.2-379.6-107.4-37.4 64-53.6 221.6-53.6 221.6 82.8 70.4 166.4 119.2 336.8 104.8 0.4 12.8 6 54.2-40.8 56.2 0 0-187 22.2-292-67 5 33 11.8 58.6 22.2 78.8 68.4 61.6 158 99 256.6 99 212.8 0 386-174.2 386-389-0.4-152-87.6-284-213.6-348z" />
<glyph unicode="&#xe967;" glyph-name="quora" data-tags="quora" horiz-adv-x="896" d="M881 186.6h-58.6c-3-27-21-61.6-66-61.6-41 0-70.6 28.4-99 71.6 88.4 68.4 149.4 175 149.4 306 0.2 235-193.2 393.4-396.8 393.4-199.4 0-395.4-159.4-395.4-393.4 0-268.2 262.6-443.2 498-378 39.4-67.2 91.4-124.6 190.4-124.6 163.6 0 181.6 150.6 178 186.6zM594 301.6c-39 58.4-87.4 104.4-183 104.4-61 0-108.6-20-138-45.6l24.4-48.6c12.4 6 26 8 39.6 8 71 0 107.4-61.6 138.4-122.6-20-6-41.4-8.4-65.4-8.4-150 0-215 106-215 313.4 0 208.8 65 315.8 215 315.8 152.4 0 217.4-107 217.4-315.4 0.2-83.6-10.8-151.2-33.4-201z" />
<glyph unicode="&#xe968;" glyph-name="quinscape" data-tags="quinscape" horiz-adv-x="978" d="M603.8 10.8h-2.6c-174.6 0-316.2 141.6-316.2 316.2s141.6 316.2 316.2 316.2c189.8 0 336.4-166.2 314-353.2 8-10.2 16.4-19.2 22.4-30.6 26.8 60.6 40.6 124.8 40.6 195.4 0 270.2-219 489.2-489.2 489.2-270 0-489-219-489-489.2s219-489.2 489-489.2c49.6 0 95.6 6.4 140.8 20.2-10.4 7-18 16.4-26.8 25.2l0.8-0.2zM561.4 150.4c0 109.6 88.8 198.4 198.4 198.4s198.4-88.8 198.4-198.4c0-109.6-88.8-198.4-198.4-198.4s-198.4 88.8-198.4 198.4z" />
<glyph unicode="&#xe969;" glyph-name="qq" data-tags="qq" horiz-adv-x="896" d="M867.508 119.11c-23.052-2.786-89.72 105.482-89.72 105.482 0-62.69-32.272-144.494-102.102-203.572 33.684-10.384 109.686-38.334 91.606-68.842-14.632-24.686-251.020-15.762-319.264-8.074-68.244-7.688-304.632-16.612-319.264 8.074-18.090 30.5 57.836 58.428 91.566 68.83-69.84 59.078-102.118 140.89-102.118 203.584 0 0-66.668-108.268-89.718-105.482-10.74 1.3-24.848 59.288 18.694 199.408 20.522 66.048 43.99 120.956 80.288 211.558-6.11 233.798 90.488 429.912 320.524 429.924 227.474-0.012 326.312-192.266 320.528-429.926 36.236-90.446 59.824-145.7 80.288-211.556 43.536-140.12 29.432-198.106 18.692-199.408z" />
<glyph unicode="&#xe96a;" glyph-name="python" data-tags="python" horiz-adv-x="896" d="M335.6 887.2c-90.4-16-106.8-49.4-106.8-111.2v-81.4h213.8v-27.2h-294c-62.2 0-116.6-37.4-133.6-108.4-19.6-81.4-20.4-132.2 0-217.2 15.2-63.2 51.4-108.4 113.6-108.4h73.4v97.6c0 70.6 61 132.8 133.6 132.8h213.6c59.4 0 106.8 49 106.8 108.6v203.8c0 58-48.8 101.4-106.8 111.2-71.6 11.8-149.4 11.2-213.6-0.2zM322.2 830.4c22 0 40.2-18.4 40.2-40.8s-18-40.6-40.2-40.6c-22.2 0-40.2 18.2-40.2 40.6 0.2 22.6 18 40.8 40.2 40.8zM692.6 667.6v-95c0-73.6-62.4-135.6-133.6-135.6h-213.6c-58.4 0-106.8-50-106.8-108.6v-203.6c0-58 50.4-92 106.8-108.6 67.6-19.8 132.6-23.4 213.6 0 53.8 15.6 106.8 47 106.8 108.6v81.4h-213.4v27.2h320.4c62.2 0 85.2 43.4 106.8 108.4 22.4 67 21.4 131.4 0 217.2-15.4 61.8-44.6 108.4-106.8 108.4h-80.2zM572.4 152c22.2 0 40.2-18.2 40.2-40.6 0-22.6-18-40.8-40.2-40.8-22 0-40.2 18.4-40.2 40.8 0.2 22.6 18.2 40.6 40.2 40.6z" />
<glyph unicode="&#xe96b;" glyph-name="pushed" data-tags="pushed" horiz-adv-x="864" d="M814 736.2l-197 18 28 66.8c20.8 47-21.6 80.8-57.4 74l-542.6-88.8c-30.2-5.4-52-36.6-42.8-73.2l210.2-696.6c13-42.6 73.4-48.4 95.4-14l70.6 161.6 470.4 462.6c32.8 33.6 8.6 85.8-34.8 89.6zM595.2 852.8c10.2 1.4 15-5 10.4-14.8l-33.6-79.8-354.8 32.6 378 62zM45.4 744.2c-6.2 10.2 2 20 12.2 18.2l497.4-45.4-193.8-461.4-315.8 488.6zM272 47.2c-5.2-8-15.8-6.2-18.8 2.4l-166.2 551 255.4-395.2c-14-30-70.4-158.2-70.4-158.2zM817.6 676.2l-397.4-390.8 179.4 427.4 212.8-19.4c8-2.2 11.4-10.6 5.2-17.2z" />
<glyph unicode="&#xe96c;" glyph-name="product-hunt" data-tags="product-hunt" d="M652.6 522.4c0-41-33.4-74.4-74.4-74.4h-140.6v148.8h140.6c41 0 74.4-33.4 74.4-74.4zM1008 448c0-274-222-496-496-496s-496 222-496 496 222 496 496 496 496-222 496-496zM751.8 522.4c0 95.8-77.8 173.6-173.6 173.6h-239.8v-496h99.2v148.8h140.6c95.8 0 173.6 77.8 173.6 173.6z" />
<glyph unicode="&#xe96d;" glyph-name="playstation" data-tags="playstation" horiz-adv-x="1152" d="M1141.8 215.4c-22.6-28.4-77.6-48.6-77.6-48.6l-410.2-147.2v108.6l301.8 107.6c34.2 12.2 39.6 29.6 11.6 38.8-27.8 9.2-78.2 6.6-112.4-5.8l-201-71v112.8c46.4 15.6 94.2 27.2 151.4 33.6 81.8 9 181.8-1.2 260.4-31 88.4-28 98.4-69.4 76-97.8zM693 400.4v278c0 32.6-6 62.6-36.6 71.2-23.4 7.6-38-14.2-38-46.8v-695.8l-187.6 59.6v829.4c79.8-14.8 196-49.8 258.4-70.8 159-54.6 212.8-122.6 212.8-275.6 0-149-92-205.6-209-149.2zM86.4 139.6c-90.8 25.6-106 79-64.6 109.6 38.2 28.4 103.4 49.8 103.4 49.8l269 95.6v-109l-193.6-69.2c-34.2-12.2-39.4-29.6-11.6-38.8s78.2-6.6 112.4 5.8l92.8 33.8v-97.6c-103.2-18.6-202.8-14.6-307.8 20z" />
<glyph unicode="&#xe96e;" glyph-name="pinterest" data-tags="pinterest" horiz-adv-x="992" d="M992 448c0-274-222-496-496-496-51.2 0-100.4 7.8-146.8 22.2 20.2 33 50.4 87 61.6 130 6 23.2 30.8 118 30.8 118 16.2-30.8 63.4-57 113.6-57 149.6 0 257.4 137.6 257.4 308.6 0 163.8-133.8 286.4-305.8 286.4-214 0-327.8-143.6-327.8-300.2 0-72.8 38.8-163.4 100.6-192.2 9.4-4.4 14.4-2.4 16.6 6.6 1.6 6.8 10 40.6 13.8 56.2 1.2 5 0.6 9.4-3.4 14.2-20.2 25-36.6 70.6-36.6 113.2 0 109.4 82.8 215.2 224 215.2 121.8 0 207.2-83 207.2-201.8 0-134.2-67.8-227.2-156-227.2-48.6 0-85.2 40.2-73.4 89.6 14 59 41 122.6 41 165.2 0 38-20.4 69.8-62.8 69.8-49.8 0-89.8-51.4-89.8-120.4 0-44 14.8-73.6 14.8-73.6s-49-207.6-58-246.4c-10-42.8-6-103.2-1.8-142.4-184.4 72.2-315.2 251.8-315.2 462 0 274 222 496 496 496s496-222 496-496z" />
<glyph unicode="&#xe96f;" glyph-name="pinterest-square" data-tags="pinterest-square" horiz-adv-x="896" d="M896 800v-704c0-53-43-96-96-96h-491.2c19.6 32.8 44.8 80 54.8 118.6 6 23 30.6 116.8 30.6 116.8 16-30.6 62.8-56.4 112.6-56.4 148.2 0 254.8 136.2 254.8 305.4 0 162.2-132.4 283.6-302.8 283.6-212 0-324.4-142.2-324.4-297.2 0-72 38.4-161.6 99.6-190.2 9.4-4.4 14.2-2.4 16.4 6.6 1.6 6.8 10 40.2 13.6 55.6 1.2 5 0.6 9.2-3.4 14-20.2 24.6-36.6 69.8-36.6 112 0 108.4 82 213.2 221.8 213.2 120.6 0 205.2-82.2 205.2-199.8 0-132.8-67-224.8-154.4-224.8-48.2 0-84.2 39.8-72.8 88.8 13.8 58.4 40.6 121.4 40.6 163.6 0 106-151 91.4-151-50 0-43.4 14.6-73 14.6-73-62.8-265.6-72.2-269-59.2-385.2l4.4-1.6h-177.2c-53 0-96 43-96 96v704c0 53 43 96 96 96h704c53 0 96-43 96-96z" />
</font>
</defs>
</svg>
